Скачать через торрент музыку Secret Service – Aux Deux Magots - 1998, FLAC бесплатно без регистрации torrent

Статистика раздачи
Размер:  258 MB   |    Зарегистрирован:  6 месяцев   |    .torrent скачан:  131 раз   |   
Раздают:  1  
   
Загрузка...
 
Автор Сообщение

IGORYOK_SLOG


Secret Service – Aux Deux Magots

Жанр: Disco
Происхождение исполнителя: Швеция
Год издания данного носителя: 1998
Страна-производитель носителя: US
Тип релиза: tracks
Аудио кодек: FLAC
Битрейт аудио: lossless
Продолжительность: 00:39:09
Трэклист:
01 I'm So I'm So I'm So
02 If You Need Me
03 Don't You Know Don't You Know
04 Turn To Me
05 The Way You Are
06 Say Say
07 Light
08 Aux Deux Magots
09 Where The Wind Blows
10 Thank You For That Night

Код:

Exact Audio Copy V1.0 beta 2 from 29. April 2011

Отчёт EAC об извлечении, выполненном 23. июня 2016, 22:11

Secret Service  / Aux Deux Magots

Дисковод: ASUS    DRW-24F1ST   a   Adapter: 2  ID: 0

Режим чтения                 : Достоверность
Использование точного потока : Да
Отключение кэша аудио        : Нет
Использование указателей C2  : Нет

Коррекция смещения при чтении                     : 6
Способность читать области Lead-in и Lead-out     : Нет
Заполнение пропущенных сэмплов тишиной            : Да
Удаление блоков с тишиной в начале и конце        : Нет
При вычислениях CRC использовались нулевые сэмплы : Да
Интерфейс                                         : Встроенный Win32-интерфейс для Win NT/2000

Выходной формат : Внутренние WAV-операции
Формат сэмплов  : 44.100 Гц; 16 бит; стерео

TOC извлечённого CD

     Трек |   Старт  | Длительность | Начальный сектор | Конечный сектор
    ---------------------------------------------------------------------
       1  |  0:00.00 |    4:07.29   |           0      |      18553     
       2  |  4:07.29 |    3:30.65   |       18554      |      34368     
       3  |  7:38.19 |    3:29.44   |       34369      |      50087     
       4  | 11:07.63 |    3:41.52   |       50088      |      66714     
       5  | 14:49.40 |    5:49.35   |       66715      |      92924     
       6  | 20:39.00 |    3:13.62   |       92925      |     107461     
       7  | 23:52.62 |    3:35.43   |      107462      |     123629     
       8  | 27:28.30 |    4:12.35   |      123630      |     142564     
       9  | 31:40.65 |    3:25.46   |      142565      |     157985     
      10  | 35:06.36 |    4:03.15   |      157986      |     176225     

Характеристики диапазона извлечения и сообщения об ошибках

Выбранный диапазон

     Имя файла C:\Users\Игорь\Desktop\Secret Service  - Aux Deux Magots.wav

     Пиковый уровень 98.6 %
     Скорость извлечения 9.8 X
     Качество диапазона 100.0 %
     CRC копии 4AEDBAD0
     Копирование... OK

Ошибок не произошло

 
AccurateRip: сводка
 
Трек  1  : извлечено точно (доверие 1)  [5E1B06F4]  (AR v2)
Трек  2  : извлечено точно (доверие 1)  [73564CA5]  (AR v2)
Трек  3  : извлечено точно (доверие 1)  [DFD5FFBD]  (AR v2)
Трек  4  : извлечено точно (доверие 1)  [4D582E9B]  (AR v2)
Трек  5  : извлечено точно (доверие 1)  [D178022F]  (AR v2)
Трек  6  : извлечено точно (доверие 1)  [556784E9]  (AR v2)
Трек  7  : извлечено точно (доверие 1)  [7F90451E]  (AR v2)
Трек  8  : извлечено точно (доверие 1)  [07E2A72F]  (AR v2)
Трек  9  : извлечено точно (доверие 1)  [80451264]  (AR v2)
Трек 10  : извлечено точно (доверие 1)  [E43F15E3]  (AR v2)
 
Все треки извлечены точно

Конец отчёта

Код:

DON'T MODIFY THIS FILE

-----------------------

PERFORMER: auCDtect Task Manager, ver. 1.6.0 RC1 build 1.6.0.1
Copyright (c) 2008-2010 y-soft. All rights reserved
http://y-soft.org

ANALYZER: auCDtect: CD records authenticity detector, version 0.8.2
Copyright (c) 2004 Oleg Berngardt. All rights reserved.
Copyright (c) 2004 Alexander Djourik. All rights reserved.

FILE: 10. Thank You For That Night.flac
  Size: 26987526 Hash: 4849FA9E2ADEC8FD32EB9ACC73E7415C Accuracy: -m0
  Conclusion: CDDA 100%
  Signature: BF916189EBEF8894F6A3E061899FAB90BC37017D
FILE: 09. Where The Wind Blows.flac
  Size: 23200387 Hash: 4BEDFB389AEB71B9BE6FBDCE3CF23AF0 Accuracy: -m0
  Conclusion: CDDA 100%
  Signature: EC49650C17D17D88912D43193214BEEBD571C9AB
FILE: 08. Aux Deux Magots.flac
  Size: 29948647 Hash: FCCE88C479326928AC0698577C2071A5 Accuracy: -m0
  Conclusion: CDDA 100%
  Signature: 1A37D55956D12CD37DD5C455FC109B2F1EC50636
FILE: 07. Light.flac
  Size: 25316655 Hash: F080889E0735A1FFF511FCFE5D26B5A0 Accuracy: -m0
  Conclusion: CDDA 100%
  Signature: F6E99F8CEF6482BC333102DFD2C21244AD1C2DD9
FILE: 06. Say Say.flac
  Size: 22597752 Hash: DAF443CA38E7433D81611102E62AE56A Accuracy: -m0
  Conclusion: CDDA 100%
  Signature: 79D9AAD08273A0DF4BA13D25ADE62DF4298BB587
FILE: 05. The Way You Are.flac
  Size: 39487561 Hash: 414AE3ED4742E98DE96A88F7E1675CA7 Accuracy: -m0
  Conclusion: CDDA 100%
  Signature: D55266008ECE8E19B5DDE3580DA461B8F3EF76DF
FILE: 04. Turn To Me.flac
  Size: 24248149 Hash: 9D7D91FE12374068342BBBFFC2465940 Accuracy: -m0
  Conclusion: CDDA 100%
  Signature: 87211016AFC8A0ECE499796BC4D9606AACF14A54
FILE: 03. Don't You Know Don't You Know.flac
  Size: 25095883 Hash: 763BF1451455C9E6687F16EE28E3D3F2 Accuracy: -m0
  Conclusion: CDDA 100%
  Signature: EE8615AB0C030F50779FEC97C283FD79C3211699
FILE: 02. If You Need Me.flac
  Size: 24804810 Hash: A4E8EB66AE177D4AD380645603F042E2 Accuracy: -m0
  Conclusion: CDDA 100%
  Signature: 8CCC8348992AE0FE3207B432D972E003393822D4
FILE: 01. I'm So I'm So I'm So.flac
  Size: 29117242 Hash: EF16AF334DFED4CB6218BD87368A6A4F Accuracy: -m0
  Conclusion: CDDA 100%
  Signature: 74F43BF5125491F2F37527B6AF847D563B206531
Год первого издания: 1987
Полиграфия: присутствует
Лейбл: IEC Records
Каталоговый номер: 58119-2
Тип рипа: tracks
Уровень сжатия аудио кодеком: 887

Трекер:  [ 23-Июн-2016 20:14 ]

  

Скачать .torrent

Размер .torrent файла 11 KB


Размер: 258 MB
Хэш (hash) релиза: 97007b6a6a831acb2dde2302c294cefd5b4c0884

Еще никто не оставлял запись к записи скачать торрент Secret Service – Aux Deux Magots - 1998, FLAC . Будь первым!

!Обратная связь