Скачать через торрент Джейсон отправляется в ад: последняя пятница Jason Goes to Hell: The Final Friday Фильм бесплатно в хорошем качестве torrent

Скачивайте на UnionPeer.org фильмы через торрент без регистрации. Новинки кино в хорошем качестве через торрент. На UnionPeer.org можно скачать через торрент фильмы 2014 и 2015 годов. Самые новые фильмы.

Скачать торрент Джейсон отправляется в ад: последняя пятница Jason Goes to Hell: The Final Friday бесплатно через .torrent фильм мультфильм сериал

Статистика раздачи
Размер:  2.69 GB   |    Зарегистрирован:  22 дня   |    .torrent скачан:  17 раз   |   
Раздают:  1  
   
Загрузка...
 
Автор Сообщение

Galfimbul

avatar Galfimbul


Джейсон отправляется в ад: последняя пятница / Jason Goes to Hell: The Final Friday

Страна: США
Жанр: Ужасы, триллер.
Год выпуска: 1993
Продолжительность: 01:22:25

Перевод: Отсутствует
Cубтитры: нет
Режиссер: Адам Маркус

В ролях: Кейн Ходдер /Kane Hodder/, Джон Д. ЛеМэй /John D. LeMay/, Кэри Киган /Kari Keegan/, Стивен Уильямс /Steven Williams/, Стивен Калп /Steven Culp/, Эрин Грэй /Erin Gray/, Расти Швиммер /Rusty Schwimmer/, Ричард Гэнт /Richard Gant/, Лесли Джордан /Leslie Jordan/, Билли Грин Буш /Billy Green Bush/.

Описание: Попавший в ловушку, устроенную ФБР и взорванный бомбой, Джейсон возвращается к жизни в теле чернокожего патологоанатома, делавшего вскрытие обгоревшего трупа маньяка. Начинаются немотивированные и беспричинные убийства невинных людей перемещающегося из тела в тело Джейсона.

Сэмпл: http://multi-up.com/1132969

Качество видео: VHSRip
Формат видео: AVI

Видео: 1280х720, 23.976 fps,XviD 4500 kb/s,
Аудио: 44.100 kHz, MPEG Layer 3, 2 ch, ~128.00 kbps avg
General
Complete name : D:\Friday The 13th 9 WORKPRINT 1993\Jason Goes to Hell, The Final Friday (1993) [Unknown] [R] [voted 3.7] [Horror].avi
Format : AVI
Format/Info : Audio Video Interleave
Format profile : OpenDML
File size : 2.69 GiB
Duration : 1 h 22 min
Overall bit rate : 4 639 kb/s
Writing application : Lavf51.12.1

Video
ID : 0
Format : xvid
Codec ID : xvid
Duration : 1 h 22 min
Bit rate : 4 500 kb/s
Width : 1 280 pixels
Height : 720 pixels
Display aspect ratio : 16:9
Frame rate : 23.976 (24000/1001) FPS
Bits/(Pixel*Frame) : 0.204
Stream size : 2.61 GiB (97%)

Audio
ID : 1
Format : MPEG Audio
Format version : Version 1
Format profile : Layer 3
Mode : Joint stereo
Mode extension : MS Stereo
Codec ID : 55
Codec ID/Hint : MP3
Duration : 1 h 22 min
Bit rate mode : Constant
Bit rate : 128 kb/s
Channel(s) : 2 channels
Sampling rate : 44.1 kHz
Compression mode : Lossy
Stream size : 75.9 MiB (3%)
Alignment : Aligned on interleaves
Interleave, duration : 26 ms (0.63 video frame)


Трекер:  [ 28-Дек-2016 06:30 ]

  

Скачать .torrent

Размер .torrent файла 14 KB


Размер: 2.69 GB
Хэш (hash) релиза: 877d6fd422c70b8096b33c58a77392158ecc1c96
Подписка на обновления:

Еще никто не оставлял запись к записи скачать торрент Джейсон отправляется в ад: последняя пятница Jason Goes to Hell: The Final Friday . Будь первым!

!Обратная связь