Скачать через торрент [MULT] Чертёнок с пушистым хвостом бесплатно русская версия torrent активатор

Статистика раздачи
Размер:  138 MB   |    Зарегистрирован:  15 дней   |    .torrent скачан:  17 раз   |   
Раздают:  1  
   
Загрузка...
 
Автор Сообщение

Galfimbul

avatar Galfimbul


<span class="post-font-serif1">Чертёнок с пушистым хвостом</span>

<span class="post-font-serif1">Год выпуска: 1985
Страна: СССР
Жанр: мультфильм, короткометражка
Продолжительность: 00:15:51
Перевод: не требуется
Cубтитры: нет</span>
<span class="post-font-serif1">Режиссер: Анатолий Резников</span>
<span class="post-font-serif1">Роли озвучивали: Евгений Евстигнеев, Борис Новиков</span>
<span class="post-font-serif1">Описание: Два незадачливых пса похищают маленького котёнка, чтобы потребовать от папаши-кота выкуп. Но лучше бы они этого не делали…</span>
<span class="post-font-serif1">Релиз группы </span>
<span class="post-font-serif1">Качество: DVDRip / <a href="viewtopic.php?t=3460808" class="postLink">рип с DVD5 (Крупный план)</a>
Формат: MP4
Видео кодек: H.264
Аудио кодек: AAC
Видео: 482x360 AR:4/3 1080 kbps 25 fps
Аудио : 1ch 48 kHz 128 kbps</span>
avs [info]: 482x360p 1:1 @ 25/1 fps (cfr)
x264 [info]: using SAR=1/1
x264 [info]: using cpu capabilities: MMX2 SSE2Fast SSSE3 SSE4.2 AVX FMA3 AVX2 LZCNT BMI2
x264 [info]: profile High, level 4.1

x264 [info]: frame I:180 Avg QP:16.41 size: 28024
x264 [info]: frame P:5781 Avg QP:20.16 size: 11205
x264 [info]: frame B:17827 Avg QP:22.94 size: 3292
x264 [info]: consecutive B-frames: 2.6% 3.7% 10.2% 37.0% 17.6% 19.6% 4.4% 2.5% 1.4% 1.0%
x264 [info]: mb I I16..4: 3.1% 64.0% 32.9%
x264 [info]: mb P I16..4: 0.9% 6.4% 2.9% P16..4: 34.9% 37.4% 13.8% 2.7% 0.4% skip: 0.6%
x264 [info]: mb B I16..4: 0.1% 0.6% 0.4% B16..8: 35.2% 21.2% 3.8% direct: 9.2% skip:29.5% L0:46.8% L1:39.5% BI:13.7%
x264 [info]: 8x8 transform intra:60.3% inter:59.4%
x264 [info]: direct mvs spatial:97.8% temporal:2.2%
x264 [info]: coded y,uvDC,uvAC intra: 82.1% 85.6% 54.8% inter: 34.3% 31.8% 8.3%
x264 [info]: i16 v,h,dc,p: 14% 21% 4% 61%
x264 [info]: i8 v,h,dc,ddl,ddr,vr,hd,vl,hu: 9% 11% 8% 10% 13% 10% 13% 10% 16%
x264 [info]: i4 v,h,dc,ddl,ddr,vr,hd,vl,hu: 11% 20% 5% 8% 12% 9% 11% 9% 15%
x264 [info]: i8c dc,h,v,p: 28% 39% 19% 15%
x264 [info]: Weighted P-Frames: Y:27.6% UV:11.1%
x264 [info]: ref P L0: 35.9% 13.0% 14.9% 7.9% 6.7% 5.5% 5.3% 3.5% 3.3% 3.2% 0.9% 0.0%
x264 [info]: ref B L0: 67.0% 13.6% 6.3% 3.7% 2.8% 2.5% 2.2% 1.3% 0.6%
x264 [info]: ref B L1: 94.5% 5.5%
x264 [info]: kb/s:1080.45

encoded 23788 frames, 23.81 fps, 1080.45 kb/s

GeneralComplete name : D:\Torrents\Chertenok s pyshuctum khvoctom.1985.DVDRip.x264.640x.rip by Frost O.S.mp4Format : MPEG-4Format profile : Base MediaCodec ID : isom (isom/avc1)File size : 138 MiBDuration : 15 min 51 sOverall bit rate : 1 219 kb/sMovie name : Chertenok s pyshuctum khvoctom 1985 DVDRip x264 640x rip by Frost O SGenre : AnimationContentType : Short FilmEncoded date : UTC 2017-01-02 13:48:14Tagged date : UTC 2017-01-02 13:48:45Writing application : MkvToMp4 version: 0.224 (x64)Cover : YesComment : rip by Frost O.SLongDescription : Два незадачливых пса похищают маленького котёнка, чтобы потребовать от папаши-кота выкуп. Но лучше бы они этого не делали…

VideoID : 1Format : AVCFormat/Info : Advanced Video CodecFormat profile : High@L4.1Format settings, CABAC : YesFormat settings, ReFrames : 10 framesCodec ID : avc1Codec ID/Info : Advanced Video CodingDuration : 15 min 51 sBit rate : 1 080 kb/sMaximum bit rate : 2 374 kb/sWidth : 482 pixelsHeight : 360 pixelsDisplay aspect ratio : 4:3Frame rate mode : ConstantFrame rate : 25.000 FPSColor space : YUVChroma subsampling : 4:2:0Bit depth : 8 bitsScan type : ProgressiveBits/(Pixel*Frame) : 0.249Stream size : 123 MiB (89%)Writing library : x264 core 148 r2705 3f5ed56Encoding settings : cabac=1 / ref=10 / deblock=1:-2:-2 / analyse=0x3:0x133 / me=umh / subme=11 / psy=1 / psy_rd=0.85:0.00 / mixed_ref=1 / me_range=48 / chroma_me=1 / trellis=2 / 8x8dct=1 / cqm=0 / deadzone=21,11 / fast_pskip=0 / chroma_qp_offset=-2 / threads=6 / lookahead_threads=1 / sliced_threads=0 / nr=0 / decimate=0 / interlaced=0 / bluray_compat=0 / constrained_intra=0 / bframes=9 / b_pyramid=2 / b_adapt=2 / b_bias=0 / direct=3 / weightb=1 / open_gop=0 / weightp=2 / keyint=250 / keyint_min=25 / scenecut=40 / intra_refresh=0 / rc_lookahead=60 / rc=2pass / mbtree=1 / bitrate=1080 / ratetol=1.0 / qcomp=0.60 / qpmin=0 / qpmax=69 / qpstep=4 / cplxblur=20.0 / qblur=0.5 / ip_ratio=1.40 / aq=1:0.90Language : EnglishEncoded date : UTC 2017-01-02 13:48:14Tagged date : UTC 2017-01-02 13:48:26Color range : LimitedColor primaries : BT.601 PALTransfer characteristics : BT.470 System B, BT.470 System GMatrix coefficients : BT.601

AudioID : 2Format : AACFormat/Info : Advanced Audio CodecFormat profile : LCCodec ID : 40Duration : 15 min 51 sBit rate mode : ConstantBit rate : 128 kb/sChannel(s) : 1 channelChannel positions : Front: CSampling rate : 48.0 kHzFrame rate : 46.875 FPS (1024 spf)Compression mode : LossyStream size : 14.5 MiB (11%)Language : RussianDefault : YesAlternate group : 1Encoded date : UTC 2017-01-02 13:48:16Tagged date : UTC 2017-01-02 13:48:26


Трекер:  [ 02-Янв-2017 16:30 ]

  

Скачать .torrent

Размер .torrent файла 11 KB


Размер: 138 MB
Хэш (hash) релиза: 78822bcd2034134fee6a630b83ad2fb1c2f5214d

Еще никто не оставлял запись к записи скачать торрент [MULT] Чертёнок с пушистым хвостом . Будь первым!

!Обратная связь