Скачать через торрент Кузнец моего счастья Фильм бесплатно в хорошем качестве torrent

Скачивайте на UnionPeer.org фильмы через торрент без регистрации. Новинки кино в хорошем качестве через торрент. На UnionPeer.org можно скачать через торрент фильмы 2014 и 2015 годов. Самые новые фильмы.

Скачать торрент Кузнец моего счастья бесплатно через .torrent фильм мультфильм сериал

Статистика раздачи
Размер:  1.37 GB   |    Зарегистрирован:  8 дней   |    .torrent скачан:  192 раза   |   
Раздают:  7  
   
Загрузка...
 
Автор Сообщение

Galfimbul

avatar Galfimbul


Кузнец моего счастья

Жанр: Мелодрама
Год выпуска: 2016
Продолжительность: 01:33:01
Режиссёр: Владимир Петров
В ролях: Анна Тараторкина, Илья Ермолов, Галина Чернобаева, Евгения Кульбачная, Алиса Петрова, Руслан Чернецкий, Дарья Пармененкова, Зоя Антонова, Тамара Миронова, Антон Жуков, Александр Зеленко, Андрей Олиференко, Олег Ткачёв
Описание: Валентина – талантливый хирург, у нее «золотые руки». Она проводит самые сложные операции, и всегда успешно. Валентина не оставляет больного до полного выздоровления, ведь ее главное правило в жизни – довести любое дело до конца. Антон – полная противоположность Валентины. Сын состоятельных родителей, он легко относится к жизни, в свои 30 лет так и не определился в профессии, и любое начатое дело бросает на полпути...Казалось бы, пути Валентины и Антона никогда не пересекутся... Однако, по воле случая,они встречаются. Валентина на машине сбивает Антона, тот ударяется головой и теряет память. Он не помнит даже своего имени. Документов у Антона при себе нет, и все принимают его за обычного бомжа. Врач уверен, что амнезия кратковременная. Чтобы ускорить выздоровление, онa рекомендует больному свежий воздух и умеренные физические нагрузки. Валентина везет Антона к себе на дачу, она считает, что обязана ему помочь. Валентина принимает решение вернуть Антона к нормальной жизни. Антон – как чистый лист, и шаг за шагом Валентина наполняет его жизнь новым смыслом. Постепенно Антон и Валентина сближаются, их отношения стремительно развиваются... Но приближается тот момент, когда Антон все вспомнит... Вернется ли их жизнь в прежнее русло? Или Валентина и Антон поймут - то, что возникло между ними, и есть настоящая любовь?

Качество видео: HDTVRip
Формат видео: AVI

Видео: 720x384 (1.85:1), 25.000 fps, XviD build 73, 1905 Kbps, 0.27 Bits/Pixel
Аудио: 48 kHz, AC3 Dolby Digital, 2 ch, 192 Kbps


General
Complete name : Downloads\Kuznec.moevo.chastja.2016.HDTVRip.Files-x.avi
Format : AVI
Format/Info : Audio Video Interleave
File size : 1.37 GiB
Duration : 1h 33mn
Overall bit rate : 2 106 Kbps
Writing application : VirtualDubModRus 1.5.10.2 (build 2542/release)
Writing library : VirtualDubMod build 2542/release
Video #0
ID : 0
Format : MPEG-4 Visual
Format profile : Advanced Simple@L5
Format settings, BVOP : 1
Format settings, QPel : No
Format settings, GMC : No warppoints
Format settings, Matrix : Custom
Codec ID : XVID
Codec ID/Hint : XviD
Duration : 1h 33mn
Bit rate : 1 905 Kbps
Width : 720 pixels
Height : 384 pixels
Display aspect ratio : 1.85:1
Frame rate : 25.000 fps
Color space : YUV
Chroma subsampling : 4:2:0
Bit depth : 8 bits
Scan type : Progressive
Compression mode : Lossy
Bits/(Pixel*Frame) : 0.276
Stream size : 1.24 GiB (90%)
Writing library : XviD 73
Audio #1
ID : 1
Format : AC-3
Format/Info : Audio Coding 3
Mode extension : CM (complete main)
Format settings, Endianness : Big
Codec ID : 2000
Duration : 1h 33mn
Bit rate mode : Constant
Bit rate : 192 Kbps
Channel(s) : 2 channels
Channel positions : Front: L R
Sampling rate : 48.0 KHz
Bit depth : 16 bits
Compression mode : Lossy
Stream size : 128 MiB (9%)
Alignment : Split accross interleaves
Interleave, duration : 40 ms (1.00 video frame)
Interleave, preload duration : 500 ms


Трекер:  [ 09-Янв-2017 00:00 ]

  

Скачать .torrent

Размер .torrent файла 14 KB


Размер: 1.37 GB
Хэш (hash) релиза: 28e44214a6fc6538cfbf6c04e2cd38a0883dbd72
Подписка на обновления:

Еще никто не оставлял запись к записи скачать торрент Кузнец моего счастья . Будь первым!

!Обратная связь