Snowden torrent

1.46 GB   |    :  10    |    .torrent :  16    |   
1  
   
...
 

Galfimbul

avatar Galfimbul


<span class="post-font-serif1"> / Snowden
,

6.953 / 10 7.40 / 10
: 2016
:
: , ,
: 02:14:49

: (iTunes)
:
C: ,
:
: , ,
: , , -
:
: ,
: , , Β
: ,
: -, , , , , , , , ,

: $40 000 000
: $21 587 519
: + $9 759 150 = $31 346 669
: $1 186 410

: 21 2016
(): 15 2016,

: . . , , , , , , , . , : , ,
: BDRemux
: BDRip
: SD (480p)
: M4V
: H.264, 640x356 852356, 2.40:1, 1 300 Kbps, 23.976 fps

1: / (iTunes), AAC / 2.0 / 128 Kbps / 48.0 KHz
2: / , AAC / 2.0 / 128 Kbps / 48.0 KHz

1:
2:



</span>
Sort Name: Snowden
XID: Apple:vendor_id:2016-843831
contentID: 1153715896
Copyright: 2016 Open Road Films. All Rights Reserved.
Screenwriters: , ,
Producers: , , -
Director:
Cast: -, , , , , , , , , , , , , , ϸ
Studio: Open Road Films
Rating: 5
Long Description: . . , , , , , , , . , : , , ...
Description: . . , , , , , , , . , : , , ...
Release Date: 2016-07-21T08:00:00Z
Genre: Drama
Artist: Oliver Stone
Name: Snowden
General
Complete name : /Users/imac/HandBrake/Snowden.(480p).(pk).m4v
Format : MPEG-4
Codec ID : M4V (M4V /M4A /mp42/isom)
File size : 1.46 GiB
Duration : 2h 14mn
Overall bit rate mode : Variable
Overall bit rate : 1 554 Kbps
Movie name : Snowden
Performer : Oliver Stone
Director :
Actor : - / / / / / / / / / / / / / / ϸ
Screenplay by : / /
Producer : / / -
Production studio : Open Road Films
Genre : Drama
ContentType : Short Film
Description : . . , , , , , , , . , : , , ...
Recorded date : UTC 2016-07-21 08:00:00
Encoded date : UTC 2017-01-09 10:54:34
Tagged date : UTC 2017-01-09 11:01:04
Copyright : 2016 Open Road Films. All Rights Reserved.
Cover : Yes
Rating : None
Title/Sort : Snowden
LongDescription : . . , , , , , , , . , : , , ...
AppleStoreCatalogID : 1153715896
Vendor : Apple:vendor_id:2016-843831
ContentRating : mpaa|R|400|

Video #1
ID : 1
Format : AVC
Format/Info : Advanced Video Codec
Format profile : Baseline@L3
Format settings, CABAC : No
Format settings, ReFrames : 2 frames
Codec ID : avc1
Codec ID/Info : Advanced Video Coding
Duration : 2h 14mn
Bit rate : 1 300 Kbps
Width : 640 pixels
Height : 356 pixels
Display aspect ratio : 2.40:1
Frame rate mode : Variable
Frame rate : 23.976 fps
Minimum frame rate : 11.997 fps
Maximum frame rate : 23.981 fps
Color space : YUV
Chroma subsampling : 4:2:0
Bit depth : 8 bits
Scan type : Progressive
Bits/(Pixel*Frame) : 0.238
Stream size : 1.22 GiB (83%)
Title : Main Program
Writing library : x264 core 148 r2708 86b7198
Encoding settings : cabac=0 / ref=2 / deblock=1:0:0 / analyse=0x1:0x111 / me=umh / subme=6 / psy=1 / psy_rd=1.00:0.00 / mixed_ref=1 / me_range=16 / chroma_me=1 / trellis=0 / 8x8dct=0 / cqm=0 / deadzone=21,11 / fast_pskip=1 / chroma_qp_offset=-2 / threads=11 / lookahead_threads=1 / sliced_threads=0 / nr=0 / decimate=1 / interlaced=0 / bluray_compat=0 / constrained_intra=0 / bframes=0 / weightp=0 / keyint=240 / keyint_min=24 / scenecut=40 / intra_refresh=0 / rc_lookahead=40 / rc=2pass / mbtree=1 / bitrate=1300 / ratetol=1.0 / qcomp=0.60 / qpmin=0 / qpmax=69 / qpstep=4 / cplxblur=20.0 / qblur=0.5 / vbv_maxrate=5000 / vbv_bufsize=5000 / nal_hrd=none / filler=0 / ip_ratio=1.40 / aq=1:1.00
Language : English
Encoded date : UTC 2017-01-09 10:54:34
Tagged date : UTC 2017-01-09 10:54:41
Color range : Limited
Color primaries : BT.709
Transfer characteristics : BT.709
Matrix coefficients : BT.709
Menus : 6,7

Video #2
ID : 7
Format : JPEG
Codec ID : jpeg
Duration : 2h 14mn
Bit rate mode : Variable
Bit rate : 760 bps
Width : 640 pixels
Height : 267 pixels
Display aspect ratio : 2.40:1
Frame rate mode : Variable
Frame rate : 0.002 fps
Minimum frame rate : 0.001 fps
Maximum frame rate : 0.005 fps
Color space : YUV
Chroma subsampling : 4:2:0
Bit depth : 8 bits
Compression mode : Lossy
Bits/(Pixel*Frame) : 2.224
Stream size : 928 KiB (0%)
Title : Chapter Images
Language : English
Default : No
Encoded date : UTC 2017-01-09 10:54:47
Tagged date : UTC 2017-01-09 10:54:47
Menu For : 1

Audio #1
ID : 2
Format : AAC
Format/Info : Advanced Audio Codec
Format profile : LC
Codec ID : 40
Duration : 2h 14mn
Bit rate mode : Variable
Bit rate : 125 Kbps
Maximum bit rate : 183 Kbps
Channel(s) : 2 channels
Channel positions : Front: L R
Sampling rate : 48.0 KHz
Frame rate : 46.875 fps (1024 spf)
Compression mode : Lossy
Stream size : 121 MiB (8%)
Title : Russian Stereo
Language : Russian
Default : Yes
Alternate group : 1
Encoded date : UTC 2017-01-09 10:54:34
Tagged date : UTC 2017-01-09 10:54:43

Audio #2
ID : 3
Format : AAC
Format/Info : Advanced Audio Codec
Format profile : LC
Codec ID : 40
Duration : 2h 14mn
Bit rate mode : Variable
Bit rate : 126 Kbps
Maximum bit rate : 195 Kbps
Channel(s) : 2 channels
Channel positions : Front: L R
Sampling rate : 48.0 KHz
Frame rate : 46.875 fps (1024 spf)
Compression mode : Lossy
Stream size : 121 MiB (8%)
Title : English Stereo
Language : English
Default : No
Alternate group : 1
Encoded date : UTC 2017-01-09 10:54:34
Tagged date : UTC 2017-01-09 10:54:43

Text #1
ID : 4
Format : Timed Text
Muxing mode : sbtl
Codec ID : tx3g
Duration : 2h 10mn
Bit rate mode : Variable
Bit rate : 108 bps
Stream size : 103 KiB (0%)
Title : Russian full
Language : Russian
Default : Yes
Forced : No
Alternate group : 2
Encoded date : UTC 2017-01-09 10:54:34
Tagged date : UTC 2017-01-09 10:54:43

Text #2
ID : 5
Format : Timed Text
Muxing mode : sbtl
Codec ID : tx3g
Duration : 2h 10mn
Bit rate mode : Variable
Bit rate : 98 bps
Stream size : 94.0 KiB (0%)
Title : English full
Language : English
Default : No
Forced : No
Alternate group : 2
Encoded date : UTC 2017-01-09 10:54:34
Tagged date : UTC 2017-01-09 10:54:43

Menu #1
00:00:00.000 : Chapter 1
00:07:42.462 : Chapter 2
00:15:50.074 : Chapter 3
00:20:06.122 : Chapter 4
00:26:32.090 : Chapter 5
00:30:11.059 : Chapter 6
00:35:29.419 : Chapter 7
00:41:42.959 : Chapter 8
00:51:45.853 : Chapter 9
00:59:14.384 : Chapter 10
01:04:44.506 : Chapter 11
01:12:47.154 : Chapter 12
01:18:07.558 : Chapter 13
01:25:11.481 : Chapter 14
01:30:30.800 : Chapter 15
01:38:11.511 : Chapter 16
01:50:06.225 : Chapter 17
01:57:00.055 : Chapter 18
02:03:22.437 : Chapter 19
02:07:48.995 : Chapter 20

Menu #2
ID : 6
Codec ID : text
Duration : 2h 14mn
Language : English
Encoded date : UTC 2017-01-09 10:54:43
Tagged date : UTC 2017-01-09 10:54:43
Menu For : 1
00:00:00.000 : Chapter 1
00:07:42.462 : Chapter 2
00:15:50.074 : Chapter 3
00:20:06.122 : Chapter 4
00:26:32.090 : Chapter 5
00:30:11.059 : Chapter 6
00:35:29.419 : Chapter 7
00:41:42.959 : Chapter 8
00:51:45.853 : Chapter 9
00:59:14.384 : Chapter 10
01:04:44.506 : Chapter 11
01:12:47.154 : Chapter 12
01:18:07.558 : Chapter 13
01:25:11.481 : Chapter 14
01:30:30.800 : Chapter 15
01:38:11.511 : Chapter 16
01:50:06.225 : Chapter 17
01:57:00.055 : Chapter 18
02:03:22.437 : Chapter 19
02:07:48.995 : Chapter 20
Bit rate mode : VBR
x264 [info]: frame I:2995 Avg QP:16.13 size: 24247
x264 [info]: frame P:190948 Avg QP:20.53 size: 6477
x264 [info]: mb I I16..4: 39.8% 0.0% 60.2%
x264 [info]: mb P I16..4: 1.1% 0.0% 2.2% P16..4: 46.4% 19.1% 8.1% 0.0% 0.0% skip:23.1%
x264 [info]: coded y,uvDC,uvAC intra: 58.7% 74.0% 54.0% inter: 24.3% 25.7% 7.3%
x264 [info]: i16 v,h,dc,p: 54% 12% 8% 26%
x264 [info]: i4 v,h,dc,ddl,ddr,vr,hd,vl,hu: 38% 13% 14% 5% 6% 8% 5% 6% 4%
x264 [info]: i8c dc,h,v,p: 49% 14% 28% 9%
x264 [info]: ref P L0: 71.8% 28.2%
x264 [info]: kb/s:1294.90

<span class="post-font-serif1">
Apple TV, iPad, iPhone, <a href="www.apple.com/ipodtouch/" class="postLink">iPod Touch</a>.
Windows VLC media player</span>

 ·  , , FAQ-
:  [ 09--2017 13:30 ]

  

.torrent

.torrent 29 KB


: 1.46 GB
(hash) : 18a8fbfa2b4b3ca56447fb43cd9214df03a04e3a
··
...

Snowden . !

!