Скачать через торрент Гражданский брак Серии: 1-5 из 16 Фильм бесплатно в хорошем качестве torrent

Скачивайте на UnionPeer.org фильмы через торрент без регистрации. Новинки кино в хорошем качестве через торрент. На UnionPeer.org можно скачать через торрент фильмы 2014 и 2015 годов. Самые новые фильмы.

Скачать торрент Гражданский брак Серии: 1-5 из 16 бесплатно через .torrent фильм мультфильм сериал

Статистика раздачи
Размер:  1.35 GB   |    Зарегистрирован:  9 дней   |    .torrent скачан:  97 раз   |   
Раздают:  2  
   
Загрузка...
 
Автор Сообщение

Galfimbul

avatar Galfimbul


Гражданский брак

Год выпуска: 2017
Производство: Россия, Good Story Media
Жанр: Комедия
Продолжительность: 00:22:00
Субтитры: нет
Режиссёр: Дина Штурманова
В ролях: Агата Муцениеце, Денис Кукояка, Дмитрий Астрахан, Анна Легчилова, Ирина Чеснокова, Дмитрий Аверин, Михаил Грушевский (II), Стефания-Марьяна Гурская, Александр Шулико, Степан Девонин, Наталья Индейкина, Максим Литовченко, Азамат Нигманов, Толепберген Байсакалов
Описание: История о паре, которой уже поздно встречаться, но рано жениться. Тёма и Ника вместе уже больше года и, им хорошо и весело вместе. Но они легкомысленные и не слишком серьезно ко всему относятся. Они не хотят повторять жизнь своих родителей: 18 — первая работа, в 20 — свадьба, в 25 — семья и трое детей.
Но чтобы доказать родителям и себе, что они готовы к самостоятельной жизни, Тёма и Ника решают съехаться — тем более у них есть бабушкина квартира Ники. Отец Ники терпеть не может Тёму, но разрешает им пожить в этой квартире. Всё было бы прекрасно, если бы эта квартира не находилась всего на несколько этажей ниже квартиры родителей Ники. Теперь их ждут все прелести взрослой жизни: поиски работы и еды, ссоры из-за глупостей, надоедливые богатые соседи и так далее.

Сломит ли гражданский брак инфантильных и веселых Тёму и Нику? Или они научатся самостоятельной жизни и их любовь станет только крепче?
<a href="tracker.php?f=9&nm=%D0%93%D1%80%D0%B0%D0%B6%D0%B4%D0%B0%D0%BD%D1%81%D0%BA%D0%B8%D0%B9%20%D0%B1%D1%80%D0%B0%D0%BA" class="postLink">Все раздачи сериала</a> / Сэмпл
Релиз от:
Качество: WEBRip
Формат: AVI
Видео кодек: XviD
Аудио кодек: AC3
Видео: 704х400 (16:9), 25.000 fps, XviD build 73, 1616 Kbps, 0.23 Bits/Pixel
Аудио: 48 kHz, AC3 Dolby Digital, 2 ch, 192 Kbps
Реклама: Нет
General
Complete name : Downloads\Grazhdanskij.Brak.2017.XviD.WEB-DLRip.GeneralFilm\Grazhdanskij.Brak.01.avi
Format : AVI
Format/Info : Audio Video Interleave
File size : 278 MiB
Duration : 21mn 22s
Overall bit rate : 1 818 Kbps
Writing application : VirtualDubMod 1.5.10.3 | www.virtualdub-fr.org || (build 2550/release)
Writing library : VirtualDubMod build 2550/release
Video #0
ID : 0
Format : MPEG-4 Visual
Format profile : Advanced [email protected]
Format settings, BVOP : 1
Format settings, QPel : No
Format settings, GMC : No warppoints
Format settings, Matrix : Custom
Codec ID : XVID
Codec ID/Hint : XviD
Duration : 21mn 22s
Bit rate : 1 616 Kbps
Width : 704 pixels
Height : 400 pixels
Display aspect ratio : 16:9
Frame rate : 25.000 fps
Color space : YUV
Chroma subsampling : 4:2:0
Bit depth : 8 bits
Scan type : Progressive
Compression mode : Lossy
Bits/(Pixel*Frame) : 0.230
Stream size : 247 MiB (89%)
Writing library : XviD 73
Audio #1
ID : 1
Format : AC-3
Format/Info : Audio Coding 3
Mode extension : CM (complete main)
Format settings, Endianness : Big
Codec ID : 2000
Duration : 21mn 22s
Bit rate mode : Constant
Bit rate : 192 Kbps
Channel(s) : 2 channels
Channel positions : Front: L R
Sampling rate : 48.0 KHz
Bit depth : 16 bits
Compression mode : Lossy
Stream size : 29.4 MiB (11%)
Alignment : Split accross interleaves
Interleave, duration : 40 ms (1.00 video frame)
Interleave, preload duration : 500 ms
(1) остановить скачивание,
(2) удалить старый торрент у себя из клиента (старые серии удалять не надо),
(3) скачать новый торрент и запустить его у себя в клиенте вместо старого, при этом указать клиенту путь в старую папку куда и должно происходить скачивание новых серий.
Ваш клиент при этом должен произвести хеширование (проверку) старой папки (если не производит сам - помогите ему сделать это), и будет докачивать только те серии которых у вас ещё нет. Старые серии при этом не удаляются, а продолжают раздаваться!
Eсли вы уже удалили старые серии, то предотвратить повторную закачку старых серий можно, отжав галочку в соответсвующих местах при запуске нового торрента. По возможности, желательно не удалять старые серии как можно дольше чтобы релизёр не столько продолжал раздавать старые серии, а смог сконцентрироваться на новых.


Трекер:  [ 10-Янв-2017 23:30 ]

  

Скачать .torrent

Размер .torrent файла 28 KB


Размер: 1.35 GB
Хэш (hash) релиза: bf81b51e35bfdb20a832391887e0a15c1b6c0e3a
Подписка на обновления:

Торренты, похожие на Гражданский брак Серии: 1-5 из 16 скачать торрент

Форум Название Автор Размер S L Добавлен
Российские сериалы ·· Гражданский брак / Серии: 1-5 из 16 (Дина Штурманова) [2017, Комедия, WEBRip (720p)] Galfimbul 30164104722.81 GB 0 0 1484079271

23:14

10-Янв-17

Еще никто не оставлял запись к записи скачать торрент Гражданский брак Серии: 1-5 из 16 . Будь первым!

!Обратная связь