Скачать через торрент Саша добрый, Саша злой Серии: 1-6 из 12 Фильм бесплатно в хорошем качестве torrent

Скачивайте на UnionPeer.org фильмы через торрент без регистрации. Новинки кино в хорошем качестве через торрент. На UnionPeer.org можно скачать через торрент фильмы 2014 и 2015 годов. Самые новые фильмы.

Скачать торрент Саша добрый, Саша злой Серии: 1-6 из 12 бесплатно через .torrent фильм мультфильм сериал

Статистика раздачи
Размер:  3.2 GB   |    Зарегистрирован:  6 дней   |    .torrent скачан:  107 раз   |   
Раздают:  2  
   
Загрузка...
 
Автор Сообщение

Galfimbul

avatar Galfimbul


Саша добрый, Саша злой
Год выпуска: 2016
Производство: Россия
Жанр: Детектив
Продолжительность: 00:44:00
Субтитры: нет
Режиссёр: Мичислав Юзовский
В ролях: Роман Мадянов, Владимир Яглыч, Светлана Устинова, Наталия Антонова, Леонид Кулагин, Владимир Качан, Ирина Ефремова, Игорь Филиппов, Александр Песков, Юлия Галкина, Вячеслав Гришечкин, Мария Фелянина
Описание: В одно из районных отделений полиции города Севастополя командируют из Москвы молодого следователя — майора Александра Демина. Одновременно с Деминым в город прилетают и московские бандиты, которые собираются устроить передел власти в городе. Их главная цель — контроль над портом. Расследованием участившихся в городе преступлений поручают заниматься Александру Демину и опытному оперативнику с большим стажем — следователю Александру Шестопалову. В отделе их сразу же называют «Саша добрый» и «Саша злой».
<a href="tracker.php?f=9&nm=%D0%A1%D0%B0%D1%88%D0%B0%20%D0%B4%D0%BE%D0%B1%D1%80%D1%8B%D0%B9%20%D0%A1%D0%B0%D1%88%D0%B0%20%D0%B7%D0%BB%D0%BE%D0%B9" class="postLink">Все раздачи сериала</a> / Сэмпл
Релиз группа:
Качество: HDTVRip
Формат: AVI
Видео кодек: XviD
Аудио кодек: AC3
Видео: 720х400 (16:9), 25.000 fps, XviD build 73, 1559 Kbps, 0.21 Bits/Pixel
Аудио: 48 kHz, AC3 Dolby Digital, 2 ch, 192 Kbps
Реклама: Нет
General
Complete name : Downloads\Саша добрый Саша злой (2016).HDTVRip.RG.Russkie.serialy.&.Files-x
Format : AVI
Format/Info : Audio Video Interleave
File size : 542 MiB
Duration : 43mn 8s
Overall bit rate : 1 758 Kbps
Writing application : VirtualDubMod 1.5.10.3 (build 2550/release)
Writing library : VirtualDubMod build 2550/release
Video #0
ID : 0
Format : MPEG-4 Visual
Format profile : Advanced Simple@L5
Format settings, BVOP : 1
Format settings, QPel : No
Format settings, GMC : No warppoints
Format settings, Matrix : Custom
Codec ID : XVID
Codec ID/Hint : XviD
Duration : 43mn 8s
Bit rate : 1 556 Kbps
Width : 720 pixels
Height : 400 pixels
Display aspect ratio : 16:9
Frame rate : 25.000 fps
Color space : YUV
Chroma subsampling : 4:2:0
Bit depth : 8 bits
Scan type : Progressive
Compression mode : Lossy
Bits/(Pixel*Frame) : 0.216
Stream size : 480 MiB (89%)
Writing library : XviD 73
Audio #1
ID : 1
Format : AC-3
Format/Info : Audio Coding 3
Mode extension : CM (complete main)
Format settings, Endianness : Big
Codec ID : 2000
Duration : 43mn 8s
Bit rate mode : Constant
Bit rate : 192 Kbps
Channel(s) : 2 channels
Channel positions : Front: L R
Sampling rate : 48.0 KHz
Bit depth : 16 bits
Compression mode : Lossy
Stream size : 59.2 MiB (11%)
Alignment : Split accross interleaves
Interleave, duration : 40 ms (1.00 video frame)
Interleave, preload duration : 500 ms
(1) остановить скачивание,
(2) удалить старый торрент у себя из клиента (старые серии удалять не надо),
(3) скачать новый торрент и запустить его у себя в клиенте вместо старого, при этом указать клиенту путь в старую папку куда и должно происходить скачивание новых серий.
Ваш клиент при этом должен произвести хеширование (проверку) старой папки (если не производит сам - помогите ему сделать это), и будет докачивать только те серии которых у вас ещё нет. Старые серии при этом не удаляются, а продолжают раздаваться!
Eсли вы уже удалили старые серии, то предотвратить повторную закачку старых серий можно, отжав галочку в соответсвующих местах при запуске нового торрента. По возможности, желательно не удалять старые серии как можно дольше чтобы релизёр не столько продолжал раздавать старые серии, а смог сконцентрироваться на новых.


Трекер:  [ 11-Янв-2017 12:30 ]

  

Скачать .torrent

Размер .torrent файла 17 KB


Размер: 3.2 GB
Хэш (hash) релиза: 303d8dd159cd3db67afa67229280103962ff171f
Подписка на обновления:

Еще никто не оставлял запись к записи скачать торрент Саша добрый, Саша злой Серии: 1-6 из 12 . Будь первым!

!Обратная связь