Скачать через торрент Василиса Серии:1-6 из 60 Фильм бесплатно в хорошем качестве torrent

Скачивайте на UnionPeer.org фильмы через торрент без регистрации. Новинки кино в хорошем качестве через торрент. На UnionPeer.org можно скачать через торрент фильмы 2014 и 2015 годов. Самые новые фильмы.

Скачать торрент Василиса Серии:1-6 из 60 бесплатно через .torrent фильм мультфильм сериал

Статистика раздачи
Размер:  3.22 GB   |    Зарегистрирован:  6 дней   |    .torrent скачан:  35 раз   |   
Раздают:  1   Качают:  1  
   
Загрузка...
 
Автор Сообщение

Galfimbul

avatar Galfimbul


Василиса

Год выпуска: 2015
Производство: Россия, Кинокомпания "Русское"
Жанр: мелодрама
Продолжительность: 00:45:00
Субтитры: нет
Режиссёр: Борис Рабей, Андрей Записов
В ролях:
Виктория Кобленко, Александр Пашков, Антон Сёмкин, Наталья Ноздрина, Ольга Кирсанова-Миропольская, Андрей Леонов, Андрей Заводюк
Описание: К тридцати годам жизнь Василисы Кузнецовой (Виктория Кобленко) вполне устоялась. Она работает в отделе по работе с клиентами Управляющей компании ООО "ЖКХ", где все ее любят – и жильцы, с которыми по долгу службы Василисе приходится общаться каждый день, и коллеги. Она живет отдельно от родителей. Пока одинока, но Василиса считает, что это временно, ведь у нее такие трепетные отношения с ее коллегой, техническим директором – Константином. Василиса уверена, что ко дню ее рождения Константин непременно приготовит какой-то приятный сюрприз, возможно, даже сделает предложение. Однако праздник начинается с разочарований – из-за хлопот с предстоящей свадьбой своей младшей дочери Ирины, мама Василисы не только совершенно забыла о ее дне рождения, но еще и предложила перенести его и отпраздновать заодно с помолвкой. На работе девушка тоже не дождалась поздравлений. Все готовились встречать нового сотрудника. Оказывается, Константин благодаря помощи, влюбленной в него Василисы, пошел на повышение, и будет теперь работать в Управе. На свое прежнее место он порекомендовал давнего приятеля, Ивана (Александр Пашков). И в довершение всех разочарований выясняется, что Василиса в качестве подарка на свадьбу сестры должна будет отдать молодоженам свою квартиру, а сама переехать к родителям. Мама предложила Василисе объявить об этом прямо на помолвке, в присутствии высокопоставленных гостей. Василиса срывается и ко всеобщему удивлению заявляет, что через три месяца тоже выйдет замуж! Теперь ей срочно
Релиз группа
<a href="tracker.php?f=9&nm=Василиса" class="postLink">Все раздачи сериала</a>
Сэмпл
Качество: HDTVRip
Формат: AVI
Видео кодек: XviD
Аудио кодек: AC3
Видео: 720x400 (1.80:1), 25 fps, XviD build 73 ~1448 kbps avg, 0.22 bit/pixel
Аудио: 48 kHz, AC3 Dolby Digital, 2/0 (L,R) ch, ~192.00 kbps avg
General
Complete name : X:\раздачи\Васелиса (2016).HDTVRip.RG.Russkie.serialy.&.Files-x\01.Васелиса (2016).HDTVRip.RG.Russkie.serialy.&.Files-x.avi
Format : AVI
Format/Info : Audio Video Interleave
File size : 550 MiB
Duration : 44 min 1 s
Overall bit rate : 1 746 kb/s
Writing application : VirtualDubMod 1.5.10.3 (build 2550/release)
Writing library : VirtualDubMod build 2550/release

Video
ID : 0
Format : MPEG-4 Visual
Format profile : Advanced Simple@L5
Format settings, BVOP : 1
Format settings, QPel : No
Format settings, GMC : No warppoints
Format settings, Matrix : Custom
Codec ID : XVID
Codec ID/Hint : XviD
Duration : 44 min 1 s
Bit rate : 1 545 kb/s
Width : 720 pixels
Height : 400 pixels
Display aspect ratio : 16:9
Frame rate : 25.000 FPS
Color space : YUV
Chroma subsampling : 4:2:0
Bit depth : 8 bits
Scan type : Progressive
Compression mode : Lossy
Bits/(Pixel*Frame) : 0.215
Stream size : 486 MiB (88%)
Writing library : XviD 73

Audio
ID : 1
Format : AC-3
Format/Info : Audio Coding 3
Mode extension : CM (complete main)
Format settings, Endianness : Big
Codec ID : 2000
Duration : 44 min 1 s
Bit rate mode : Constant
Bit rate : 192 kb/s
Channel(s) : 2 channels
Channel positions : Front: L R
Sampling rate : 48.0 kHz
Frame rate : 31.250 FPS (1536 spf)
Bit depth : 16 bits
Compression mode : Lossy
Stream size : 60.5 MiB (11%)
Alignment : Split accross interleaves
Interleave, duration : 40 ms (1.00 video frame)
Interleave, preload duratio : 500 ms
Внимание! Раздача ведётся путём добавления новых серий
Внимание! Раздача ведётся путём добавления новых серий; при каждом добавлении создётся новый торрент.
Чтобы начать докачку новой серии, пользователям необходимо сделать следующее:
1) остановить скачивание
2) удалить старый торрент у себя из клиента (старые серии удалять не надо)
3) скачать новый торрент и запустить его у себя в клиенте вместо старого, при этом указать клиенту путь в старую папку куда и должно происходить скачивание новых серий.
Ваш клиент при этом должен произвести хеширование (проверку) старой папки (если не производит сам - помогите ему сделать это), и будет докачивать только те серии которых у вас ещё нет. Старые серии при этом не удаляются, а продолжают раздаваться!
Eсли вы уже удалили старые серии, то предотвратить повторную закачку старых серий можно, отжав галочку в соответствовавших местах при запуске нового торрента.


Трекер:  [ 11-Янв-2017 15:00 ]

  

Скачать .torrent

Размер .torrent файла 17 KB


Размер: 3.22 GB
Хэш (hash) релиза: 5cf5e4c6d1cee3485f501640e14b71ef8d7a4bb0
Подписка на обновления:

Еще никто не оставлял запись к записи скачать торрент Василиса Серии:1-6 из 60 . Будь первым!

!Обратная связь