Скачать через торрент Точка кипения Boiling Point Фильм бесплатно в хорошем качестве torrent

Скачивайте на UnionPeer.org фильмы через торрент без регистрации. Новинки кино в хорошем качестве через торрент. На UnionPeer.org можно скачать через торрент фильмы 2014 и 2015 годов. Самые новые фильмы.

Скачать торрент Точка кипения Boiling Point бесплатно через .torrent фильм мультфильм сериал

Статистика раздачи
Размер:  24.65 GB   |    Зарегистрирован:  8 дней   |    .torrent скачан:  10 раз   |   
Раздают:  1  
   
Загрузка...
 
Автор Сообщение

Galfimbul

avatar Galfimbul


Точка кипения / Boiling Point / 3-4 x jûgatsu

Страна: Япония
Жанр: боевик, триллер, драма, комедия, криминал
Год выпуска: 1990
Продолжительность: 01:36:52
Перевод: Профессиональный (двухголосый закадровый)
Cубтитры: русские, английские
Оригинальная аудиодорожка: японский
Режиссер: Такеши Китано / Takeshi Kitano
В ролях: Юрэй Янаги, Такеши Китано, Юрико Ишида, Гадаруканару Така, Хитоси Одзава, Хисаси Игава, Эри Фусэ, Шинобу Тцурута, Кацуо Токашики
Описание:
Случилось так, что самый обыкновенный паренёк, работающий на автозаправке, столкнулся с самым обыкновенным, но от этого ничуть не менее отвратительным бандитом из «Якудзы», решившим помыть свою машину.
Существует важное правило выживания в Японии: категорически запрещается вступать в конфронтацию с настоящим гангстером, какое бы настроение у тебя не было. К несчастью, герой фильма, Масаки, забыл об этом правиле. Роковая встреча на бензоколонке изменила жизни двух людей навсегда. Масаки пришлось очень хорошо узнать, что такое оружие, кровь и смерть…
Релиз группы:
Сэмпл: Скачать
Тип релиза: BDRemux 1080p
Контейнер: MKV
Видео: MPEG-4 AVC Video; 34986 kbps; 1080p; 23.976 fps; 16:9; High Profile 4.1
Аудио 1: Russian; AC3; 48.0 KHz; 2ch; 192 Kbps
Аудио 2: Japanese; FLAC; 48.0 KHz; 2ch; 1 297 Kbps
Format : Matroska
Format version : Version 4 / Version 2
File size : 24.7 GiB
Duration : 1 h 36 min
Overall bit rate mode : Variable
Overall bit rate : 36.4 Mb/s
Encoded date : UTC 2016-11-10 12:43:11
Writing application : mkvmerge v8.3.0 ('Over the Horizon') 64bit
Writing library : libebml v1.3.1 + libmatroska v1.4.2
Attachments : poster.jpg

Video
ID : 1
Format : AVC
Format/Info : Advanced Video Codec
Format profile : [email protected]
Format settings, CABAC : Yes
Format settings, ReFrames : 4 frames
Codec ID : V_MPEG4/ISO/AVC
Duration : 1 h 36 min
Bit rate mode : Constant
Bit rate : 35.0 Mb/s
Width : 1 920 pixels
Height : 1 080 pixels
Display aspect ratio : 16:9
Frame rate mode : Constant
Frame rate : 23.976 (24000/1001) FPS
Standard : NTSC
Color space : YUV
Chroma subsampling : 4:2:0
Bit depth : 8 bits
Scan type : Progressive
Bits/(Pixel*Frame) : 0.704
Stream size : 23.6 GiB (96%)
Default : Yes
Forced : No
Color range : Limited
Color primaries : BT.709
Transfer characteristics : BT.709
Matrix coefficients : BT.709

Audio #1
ID : 2
Format : AC-3
Format/Info : Audio Coding 3
Mode extension : CM (complete main)
Format settings, Endianness : Big
Codec ID : A_AC3
Duration : 1 h 36 min
Bit rate mode : Constant
Bit rate : 192 kb/s
Channel(s) : 2 channels
Channel positions : Front: L R
Sampling rate : 48.0 kHz
Frame rate : 31.250 FPS (1536 spf)
Compression mode : Lossy
Stream size : 133 MiB (1%)
Title : DVO
Language : Russian
Default : Yes
Forced : No

Audio #2
ID : 3
Format : FLAC
Format/Info : Free Lossless Audio Codec
Codec ID : A_FLAC
Duration : 1 h 36 min
Bit rate mode : Variable
Bit rate : 1 297 kb/s
Channel(s) : 2 channels
Channel positions : Front: L R
Sampling rate : 48.0 kHz
Frame rate : 11.719 FPS (4096 spf)
Bit depth : 24 bits
Stream size : 899 MiB (4%)
Writing library : libFLAC 1.2.1 (UTC 2007-09-17)
Language : Japanese
Default : No
Forced : No

Text #1
ID : 4
Format : UTF-8
Codec ID : S_TEXT/UTF8
Codec ID/Info : UTF-8 Plain Text
Duration : 1 h 29 min
Bit rate : 31 b/s
Count of elements : 513
Stream size : 20.8 KiB (0%)
Language : Russian
Default : No
Forced : No

Text #2
ID : 5
Format : UTF-8
Codec ID : S_TEXT/UTF8
Codec ID/Info : UTF-8 Plain Text
Duration : 1 h 36 min
Bit rate : 23 b/s
Count of elements : 675
Stream size : 16.4 KiB (0%)
Language : English
Default : No
Forced : No


Трекер:  [ 11-Янв-2017 21:00 ]

  

Скачать .torrent

Размер .torrent файла 123 KB


Размер: 24.65 GB
Хэш (hash) релиза: b2efa7da81589ac07ebc4cab59c61f2668a44b6f
Подписка на обновления:

Торренты, похожие на Точка кипения Boiling Point скачать торрент

Форум Название Автор Размер S L Добавлен
Зарубежные фильмы до 2016 ·· Точка кипения / Boiling Point / 3-4 x jûgatsu (Такеши Китано / Takeshi Kitano) [1990, Япония, боевик, триллер, драма, комедия, криминал, BDRip 720p] DVO + Sub Eng, Rus + Original Jap Galfimbul 64182566095.98 GB 0 0 1484161030

21:57

11-Янв-17

Еще никто не оставлял запись к записи скачать торрент Точка кипения Boiling Point . Будь первым!

!Обратная связь