Скачать через торрент музыку The Last Remnant Original Soundtrack бесплатно без регистрации torrent

Статистика раздачи
Размер:  1.45 GB   |    Зарегистрирован:  8 дней   |    .torrent скачан:  23 раза   |   
Раздают:  1  
   
Загрузка...
 
Автор Сообщение

Galfimbul

avatar Galfimbul


The Last Remnant Original Soundtrack

Жанр: Soundtrack
Композитор: Tsuyoshi Sekito
Год выпуска альбома: 2008
Производитель альбома: Япония
Издатель (лейбл): Square Enix
Аудиокодек: FLAC (*.flac)
Тип рипа: tracks+.cue
Битрейт аудио: lossless
Продолжительность: 03:43:27
Источник: скачано с Apollo.rip
Наличие сканов в содержимом раздачи: да
Номер по каталогу: SQEX-10127
Треклист:
01. The First Awakening (2:12)
02. Cherished Memories (0:50)
03. Opening Suite: The Search (0:19)
04. Opening Suite: The Chase (0:26)
05. Opening Suite: The Charge (0:46)
06. Opening Suite: The Assault (1:29)
07. Clash of Opposites (3:22)
08. Truths Revealed (1:04)
09. All for Her (0:35)
10. Home (1:37)
11. Gathering Clouds (1:40)
12. Into the Depths (2:41)
13. Flamedrop (4:11)
14. Struggle Eternal (3:57)
15. Sliver of Hope (2:26)
16. The Young Marquis (2:44)
17. The Known World (1:03)
18. The City of Heroes (3:12)
19. A Friendly Ear (2:24)
20. An Open Mind (1:36)
21. Fair Judgement (2:47)
22. Ante Up (1:58)
23. Creeping Shadows (3:31)
24. Rolling Hills, Sprawling Plains (4:46)
25. Sword Sparks (3:32)
26. Reversal! (2:45)
27. Horns of Victory (1:30)
28. Evil's Advance (1:10)
29. Glittering Gold (2:33)
30. Dark Secrets (3:14)
31. A Special Girl (1:00)
32. Slipping Through Your Fingers (2:48)
33. The Ageless Mage (0:57)
34. The Bonds of Friendship (2:14)
Exact Audio Copy V0.99 prebeta 4 from 23. January 2008

EAC extraction logfile from 10. May 2009, 11:29

Various / The Last Remnant Original Soundtrack (Disc 1)

Used drive : Optiarc DVD RW AD-7200S Adapter: 5 ID: 0

Read mode : SecureUtilize accurate stream : YesDefeat audio cache : YesMake use of C2 pointers : No

Read offset correction : 48Overread into Lead-In and Lead-Out : NoFill up missing offset samples with silence : YesDelete leading and trailing silent blocks : NoNull samples used in CRC calculations : YesUsed interface : Native Win32 interface for Win NT & 2000Gap handling : Appended to previous track

Used output format : User Defined EncoderSelected bitrate : 128 kBit/sQuality : HighAdd ID3 tag : NoCommand line compressor : G:\Program Files\Exact Audio Copy\Flac\flac.exeAdditional command line options : -8 -V -T "ARTIST=%a" -T "TITLE=%t" -T "ALBUM=%g" -T "DATE=%y" -T "TRACKNUMBER=%n" -T "GENRE=%m" -T "COMMENT=EAC FLAC -8" %s

TOC of the extracted CD

Track | Start | Length | Start sector | End sector --------------------------------------------------------- 1 | 0:00.00 | 2:12.07 | 0 | 9906 2 | 2:12.07 | 0:50.24 | 9907 | 13680 3 | 3:02.31 | 0:19.30 | 13681 | 15135 4 | 3:21.61 | 0:25.52 | 15136 | 17062 5 | 3:47.38 | 0:45.71 | 17063 | 20508 6 | 4:33.34 | 1:29.28 | 20509 | 27211 7 | 6:02.62 | 3:22.29 | 27212 | 42390 8 | 9:25.16 | 1:04.07 | 42391 | 47197 9 | 10:29.23 | 0:35.17 | 47198 | 49839 10 | 11:04.40 | 1:37.23 | 49840 | 57137 11 | 12:41.63 | 1:39.53 | 57138 | 64615 12 | 14:21.41 | 2:41.14 | 64616 | 76704 13 | 17:02.55 | 4:10.64 | 76705 | 95518 14 | 21:13.44 | 3:57.37 | 95519 | 113330 15 | 25:11.06 | 2:26.13 | 113331 | 124293 16 | 27:37.19 | 2:44.27 | 124294 | 136620 17 | 30:21.46 | 1:03.22 | 136621 | 141367 18 | 31:24.68 | 3:11.48 | 141368 | 155740 19 | 34:36.41 | 2:24.02 | 155741 | 166542 20 | 37:00.43 | 1:36.14 | 166543 | 173756 21 | 38:36.57 | 2:46.54 | 173757 | 186260 22 | 41:23.36 | 1:58.33 | 186261 | 195143 23 | 43:21.69 | 3:30.39 | 195144 | 210932 24 | 46:52.33 | 4:46.00 | 210933 | 232382 25 | 51:38.33 | 3:31.59 | 232383 | 248266 26 | 55:10.17 | 2:44.48 | 248267 | 260614 27 | 57:54.65 | 1:30.22 | 260615 | 267386 28 | 59:25.12 | 1:10.23 | 267387 | 272659 29 | 60:35.35 | 2:32.74 | 272660 | 284133 30 | 63:08.34 | 3:14.17 | 284134 | 298700 31 | 66:22.51 | 0:59.60 | 298701 | 303185 32 | 67:22.36 | 2:47.62 | 303186 | 315772 33 | 70:10.23 | 0:56.56 | 315773 | 320028 34 | 71:07.04 | 2:13.48 | 320029 | 330051

Track 1

Filename Q:\The Last Remnant Original Soundtrack (Disc 1)\01 Tsuyoshi Sekito - The First Awakening.wav

Pre-gap length 0:00:02.00

Peak level 99.9 % Track quality 100.0 % Test CRC DCBE74CD Copy CRC DCBE74CD Accurately ripped (confidence 2) [13C08289] Copy OK

Track 2

Filename Q:\The Last Remnant Original Soundtrack (Disc 1)\02 Tsuyoshi Sekito - Cherished Memories.wav

Peak level 99.9 % Track quality 100.0 % Test CRC 61AE05CE Copy CRC 61AE05CE Accurately ripped (confidence 2) [7C471663] Copy OK

Track 3

Filename Q:\The Last Remnant Original Soundtrack (Disc 1)\03 Tsuyoshi Sekito - Opening Suite- The Search.wav

Peak level 94.8 % Track quality 100.0 % Test CRC 85D73227 Copy CRC 85D73227 Accurately ripped (confidence 2) [A61F4E70] Copy OK

Track 4

Filename Q:\The Last Remnant Original Soundtrack (Disc 1)\04 Tsuyoshi Sekito, Yasuhiro Yamanaka - Opening Suite- The Chase.wav

Peak level 99.9 % Track quality 100.0 % Test CRC 698C9931 Copy CRC 698C9931 Accurately ripped (confidence 2) [C0973765] Copy OK

Track 5

Filename Q:\The Last Remnant Original Soundtrack (Disc 1)\05 Tsuyoshi Sekito - Opening Suite- The Charge.wav

Peak level 99.9 % Track quality 100.0 % Test CRC 9AEF8502 Copy CRC 9AEF8502 Accurately ripped (confidence 2) [C6516FCF] Copy OK

Track 6

Filename Q:\The Last Remnant Original Soundtrack (Disc 1)\06 Tsuyoshi Sekito - Opening Suite- The Assault.wav

Peak level 99.9 % Track quality 100.0 % Test CRC 91FAB812 Copy CRC 91FAB812 Accurately ripped (confidence 2) [9FFE9415] Copy OK

Track 7

Filename Q:\The Last Remnant Original Soundtrack (Disc 1)\07 Tsuyoshi Sekito - Clash of Opposites.wav

Peak level 98.4 % Track quality 100.0 % Test CRC EA27A979 Copy CRC EA27A979 Accurately ripped (confidence 2) [E2451A2B] Copy OK

Track 8

Filename Q:\The Last Remnant Original Soundtrack (Disc 1)\08 Tsuyoshi Sekito - Truths Revealed.wav

Peak level 99.9 % Track quality 99.8 % Test CRC D74E1E88 Copy CRC D74E1E88 Accurately ripped (confidence 2) [80204B5B] Copy OK

Track 9

Filename Q:\The Last Remnant Original Soundtrack (Disc 1)\09 Tsuyoshi Sekito - All for Her.wav

Peak level 99.9 % Track quality 99.6 % Test CRC 5332E5F3 Copy CRC 5332E5F3 Accurately ripped (confidence 2) [C5842D8F] Copy OK

Track 10

Filename Q:\The Last Remnant Original Soundtrack (Disc 1)\10 Tsuyoshi Sekito - Home.wav

Peak level 83.4 % Track quality 99.8 % Test CRC 13F7C46B Copy CRC 13F7C46B Accurately ripped (confidence 2) [CE38ED7A] Copy OK

Track 11

Filename Q:\The Last Remnant Original Soundtrack (Disc 1)\11 Tsuyoshi Sekito - Gathering Clouds.wav

Peak level 99.9 % Track quality 100.0 % Test CRC B710EABF Copy CRC B710EABF Accurately ripped (confidence 2) [099DBF70] Copy OK

Track 12

Filename Q:\The Last Remnant Original Soundtrack (Disc 1)\12 Yasuhiro Yamanaka - Into the Depths.wav

Peak level 99.9 % Track quality 100.0 % Test CRC C0CDFF18 Copy CRC C0CDFF18 Accurately ripped (confidence 2) [48F86A9C] Copy OK

Track 13

Filename Q:\The Last Remnant Original Soundtrack (Disc 1)\13 Tsuyoshi Sekito - Flamedrop.wav

Peak level 99.9 % Track quality 100.0 % Test CRC 41E312E2 Copy CRC 41E312E2 Accurately ripped (confidence 2) [0D429D06] Copy OK

Track 14

Filename Q:\The Last Remnant Original Soundtrack (Disc 1)\14 Tsuyoshi Sekito - Struggle Eternal.wav

Peak level 88.1 % Track quality 100.0 % Test CRC 0CA66B70 Copy CRC 0CA66B70 Accurately ripped (confidence 2) [0068AA7B] Copy OK

Track 15

Filename Q:\The Last Remnant Original Soundtrack (Disc 1)\15 Tsuyoshi Sekito - Sliver of Hope.wav

Peak level 99.9 % Track quality 100.0 % Test CRC 8E06FA2D Copy CRC 8E06FA2D Accurately ripped (confidence 2) [F9E5091C] Copy OK

Track 16

Filename Q:\The Last Remnant Original Soundtrack (Disc 1)\16 Tsuyoshi Sekito - The Young Marquis.wav

Peak level 99.9 % Track quality 99.9 % Test CRC 279A5397 Copy CRC 279A5397 Accurately ripped (confidence 2) [F59F7BB8] Copy OK

Track 17

Filename Q:\The Last Remnant Original Soundtrack (Disc 1)\17 Yasuhiro Yamanaka - The Known World.wav

Peak level 99.9 % Track quality 100.0 % Test CRC 94868B5A Copy CRC 94868B5A Accurately ripped (confidence 2) [FFE9F9A8] Copy OK

Track 18

Filename Q:\The Last Remnant Original Soundtrack (Disc 1)\18 Tsuyoshi Sekito - The City of Heroes.wav

Peak level 99.9 % Track quality 100.0 % Test CRC C5DDB6AF Copy CRC C5DDB6AF Accurately ripped (confidence 2) [19416090] Copy OK

Track 19

Filename Q:\The Last Remnant Original Soundtrack (Disc 1)\19 Tsuyoshi Sekito - A Friendly Ear.wav

Peak level 99.9 % Track quality 100.0 % Test CRC 73DA14A1 Copy CRC 73DA14A1 Accurately ripped (confidence 2) [DAD9DADC] Copy OK

Track 20

Filename Q:\The Last Remnant Original Soundtrack (Disc 1)\20 Tsuyoshi Sekito - An Open Mind.wav

Peak level 99.9 % Track quality 100.0 % Test CRC 603BF367 Copy CRC 603BF367 Accurately ripped (confidence 2) [6606A7C1] Copy OK

Track 21

Filename Q:\The Last Remnant Original Soundtrack (Disc 1)\21 Tsuyoshi Sekito - Fair Judgement.wav

Peak level 99.9 % Track quality 99.9 % Test CRC 6E860A51 Copy CRC 6E860A51 Accurately ripped (confidence 2) [88990525] Copy OK

Track 22

Filename Q:\The Last Remnant Original Soundtrack (Disc 1)\22 Yasuhiro Yamanaka - Ante Up.wav

Peak level 99.5 % Track quality 100.0 % Test CRC 09AD2CD5 Copy CRC 09AD2CD5 Accurately ripped (confidence 2) [022E72D5] Copy OK

Track 23

Filename Q:\The Last Remnant Original Soundtrack (Disc 1)\23 Yasuhiro Yamanaka - Creeping Shadows.wav

Peak level 99.9 % Track quality 99.9 % Test CRC 169A55AB Copy CRC 169A55AB Accurately ripped (confidence 2) [781F8FF6] Copy OK

Track 24

Filename Q:\The Last Remnant Original Soundtrack (Disc 1)\24 Tsuyoshi Sekito - Rolling Hills, Sprawling Plains.wav

Peak level 99.9 % Track quality 100.0 % Test CRC 82449616 Copy CRC 82449616 Accurately ripped (confidence 2) [774036EA] Copy OK

Track 25

Filename Q:\The Last Remnant Original Soundtrack (Disc 1)\25 Tsuyoshi Sekito - Sword Sparks.wav

Peak level 99.9 % Track quality 100.0 % Test CRC D32151EF Copy CRC D32151EF Accurately ripped (confidence 2) [8EB710A9] Copy OK

Track 26

Filename Q:\The Last Remnant Original Soundtrack (Disc 1)\26 Tsuyoshi Sekito - Reversal!.wav

Peak level 99.9 % Track quality 100.0 % Test CRC CFB6663E Copy CRC CFB6663E Accurately ripped (confidence 2) [E905420E] Copy OK

Track 27

Filename Q:\The Last Remnant Original Soundtrack (Disc 1)\27 Tsuyoshi Sekito - Horns of Victory.wav

Peak level 99.9 % Track quality 100.0 % Test CRC C20511F9 Copy CRC C20511F9 Accurately ripped (confidence 2) [02675184] Copy OK

Track 28

Filename Q:\The Last Remnant Original Soundtrack (Disc 1)\28 Tsuyoshi Sekito - Evil's Advance.wav

Peak level 99.9 % Track quality 100.0 % Test CRC 8F9D148C Copy CRC 8F9D148C Accurately ripped (confidence 2) [A52BD6F8] Copy OK

Track 29

Filename Q:\The Last Remnant Original Soundtrack (Disc 1)\29 Tsuyoshi Sekito - Glittering Gold.wav

Peak level 99.9 % Track quality 100.0 % Test CRC 99AD0AF8 Copy CRC 99AD0AF8 Accurately ripped (confidence 2) [5524080F] Copy OK

Track 30

Filename Q:\The Last Remnant Original Soundtrack (Disc 1)\30 Yasuhiro Yamanaka - Dark Secrets.wav

Peak level 99.9 % Track quality 100.0 % Test CRC 55BB2673 Copy CRC 55BB2673 Accurately ripped (confidence 2) [84543B37] Copy OK

Track 31

Filename Q:\The Last Remnant Original Soundtrack (Disc 1)\31 Tsuyoshi Sekito - A Special Girl.wav

Peak level 56.4 % Track quality 100.0 % Test CRC A5CE5AE7 Copy CRC A5CE5AE7 Track not present in AccurateRip database Copy OK

Track 32

Filename Q:\The Last Remnant Original Soundtrack (Disc 1)\32 Tsuyoshi Sekito - Slipping Through Your Fingers.wav

Peak level 99.9 % Track quality 100.0 % Test CRC E10466B1 Copy CRC E10466B1 Accurately ripped (confidence 2) [68CAEC54] Copy OK

Track 33

Filename Q:\The Last Remnant Original Soundtrack (Disc 1)\33 Tsuyoshi Sekito - The Ageless Mage.wav

Peak level 99.9 % Track quality 99.8 % Test CRC C4B64C4C Copy CRC C4B64C4C Accurately ripped (confidence 2) [C7185BF8] Copy OK

Track 34

Filename Q:\The Last Remnant Original Soundtrack (Disc 1)\34 Tsuyoshi Sekito - The Bonds of Friendship.wav

Peak level 99.9 % Track quality 100.0 % Test CRC E10FC588 Copy CRC E10FC588 Accurately ripped (confidence 2) [4A19D4A5] Copy OK

33 track(s) accurately ripped 1 track(s) not present in the AccurateRip database

Some tracks could not be verified as accurate

No errors occurred

End of status report
REM GENRE GameREM DATE 2008REM DISCID E0113022REM COMMENT "ExactAudioCopy v0.99pb4"PERFORMER "Various"TITLE "The Last Remnant Original Soundtrack (Disc 1)"FILE "01 The First Awakening.wav" WAVE TRACK 01 AUDIO TITLE "The First Awakening" PERFORMER "Tsuyoshi Sekito" INDEX 01 00:00:00FILE "02 Cherished Memories.wav" WAVE TRACK 02 AUDIO TITLE "Cherished Memories" PERFORMER "Tsuyoshi Sekito" INDEX 01 00:00:00FILE "03 Opening Suite - The Search.wav" WAVE TRACK 03 AUDIO TITLE "Opening Suite: The Search" PERFORMER "Tsuyoshi Sekito" INDEX 01 00:00:00FILE "04 Opening Suite - The Chase.wav" WAVE TRACK 04 AUDIO TITLE "Opening Suite: The Chase" PERFORMER "Tsuyoshi Sekito, Yasuhiro Yamanaka" INDEX 01 00:00:00FILE "05 Opening Suite - The Charge.wav" WAVE TRACK 05 AUDIO TITLE "Opening Suite: The Charge" PERFORMER "Tsuyoshi Sekito" INDEX 01 00:00:00FILE "06 Opening Suite - The Assault.wav" WAVE TRACK 06 AUDIO TITLE "Opening Suite: The Assault" PERFORMER "Tsuyoshi Sekito" INDEX 01 00:00:00FILE "07 Clash of Opposites.wav" WAVE TRACK 07 AUDIO TITLE "Clash of Opposites" PERFORMER "Tsuyoshi Sekito" INDEX 01 00:00:00FILE "08 Truths Revealed.wav" WAVE TRACK 08 AUDIO TITLE "Truths Revealed" PERFORMER "Tsuyoshi Sekito" INDEX 01 00:00:00FILE "09 All for Her.wav" WAVE TRACK 09 AUDIO TITLE "All for Her" PERFORMER "Tsuyoshi Sekito" INDEX 01 00:00:00FILE "10 Home.wav" WAVE TRACK 10 AUDIO TITLE "Home" PERFORMER "Tsuyoshi Sekito" INDEX 01 00:00:00FILE "11 Gathering Clouds.wav" WAVE TRACK 11 AUDIO TITLE "Gathering Clouds" PERFORMER "Tsuyoshi Sekito" INDEX 01 00:00:00FILE "12 Into the Depths.wav" WAVE TRACK 12 AUDIO TITLE "Into the Depths" PERFORMER "Yasuhiro Yamanaka" INDEX 01 00:00:00FILE "13 Flamedrop.wav" WAVE TRACK 13 AUDIO TITLE "Flamedrop" PERFORMER "Tsuyoshi Sekito" INDEX 01 00:00:00FILE "14 Struggle Eternal.wav" WAVE TRACK 14 AUDIO TITLE "Struggle Eternal" PERFORMER "Tsuyoshi Sekito" INDEX 01 00:00:00FILE "15 Sliver of Hope.wav" WAVE TRACK 15 AUDIO TITLE "Sliver of Hope" PERFORMER "Tsuyoshi Sekito" INDEX 01 00:00:00FILE "16 The Young Marquis.wav" WAVE TRACK 16 AUDIO TITLE "The Young Marquis" PERFORMER "Tsuyoshi Sekito" INDEX 01 00:00:00FILE "17 The Known World.wav" WAVE TRACK 17 AUDIO TITLE "The Known World" PERFORMER "Yasuhiro Yamanaka" INDEX 01 00:00:00FILE "18 The City of Heroes.wav" WAVE TRACK 18 AUDIO TITLE "The City of Heroes" PERFORMER "Tsuyoshi Sekito" INDEX 01 00:00:00FILE "19 A Friendly Ear.wav" WAVE TRACK 19 AUDIO TITLE "A Friendly Ear" PERFORMER "Tsuyoshi Sekito" INDEX 01 00:00:00FILE "20 An Open Mind.wav" WAVE TRACK 20 AUDIO TITLE "An Open Mind" PERFORMER "Tsuyoshi Sekito" INDEX 01 00:00:00FILE "21 Fair Judgement.wav" WAVE TRACK 21 AUDIO TITLE "Fair Judgement" PERFORMER "Tsuyoshi Sekito" INDEX 01 00:00:00FILE "22 Ante Up.wav" WAVE TRACK 22 AUDIO TITLE "Ante Up" PERFORMER "Yasuhiro Yamanaka" INDEX 01 00:00:00FILE "23 Creeping Shadows.wav" WAVE TRACK 23 AUDIO TITLE "Creeping Shadows" PERFORMER "Yasuhiro Yamanaka" INDEX 01 00:00:00FILE "24 Rolling Hills, Sprawling Plains.wav" WAVE TRACK 24 AUDIO TITLE "Rolling Hills, Sprawling Plains" PERFORMER "Tsuyoshi Sekito" INDEX 01 00:00:00FILE "25 Sword Sparks.wav" WAVE TRACK 25 AUDIO TITLE "Sword Sparks" PERFORMER "Tsuyoshi Sekito" INDEX 01 00:00:00FILE "26 Reversal!.wav" WAVE TRACK 26 AUDIO TITLE "Reversal!" PERFORMER "Tsuyoshi Sekito" INDEX 01 00:00:00FILE "27 Horns of Victory.wav" WAVE TRACK 27 AUDIO TITLE "Horns of Victory" PERFORMER "Tsuyoshi Sekito" INDEX 01 00:00:00FILE "28 Evil's Advance.wav" WAVE TRACK 28 AUDIO TITLE "Evil's Advance" PERFORMER "Tsuyoshi Sekito" INDEX 01 00:00:00FILE "29 Glittering Gold.wav" WAVE TRACK 29 AUDIO TITLE "Glittering Gold" PERFORMER "Tsuyoshi Sekito" INDEX 01 00:00:00FILE "30 Dark Secrets.wav" WAVE TRACK 30 AUDIO TITLE "Dark Secrets" PERFORMER "Yasuhiro Yamanaka" INDEX 01 00:00:00FILE "31 A Special Girl.wav" WAVE TRACK 31 AUDIO TITLE "A Special Girl" PERFORMER "Tsuyoshi Sekito" INDEX 01 00:00:00FILE "32 Slipping Through Your Fingers.wav" WAVE TRACK 32 AUDIO TITLE "Slipping Through Your Fingers" PERFORMER "Tsuyoshi Sekito" INDEX 01 00:00:00FILE "33 The Ageless Mage.wav" WAVE TRACK 33 AUDIO TITLE "The Ageless Mage" PERFORMER "Tsuyoshi Sekito" INDEX 01 00:00:00FILE "34 The Bonds of Friendship.wav" WAVE TRACK 34 AUDIO TITLE "The Bonds of Friendship" PERFORMER "Tsuyoshi Sekito" INDEX 01 00:00:00
foobar2000 1.3.14 / Dynamic Range Meter 1.1.1log date: 2017-01-12 00:24:49

--------------------------------------------------------------------------------Analyzed: Tsuyoshi Sekito, Yasuhiro Yamanaka / The Last Remnant Original Soundtrack (Disc 1) (1) Tsuyoshi Sekito / The Last Remnant Original Soundtrack (Disc 1) (2-29) Yasuhiro Yamanaka / The Last Remnant Original Soundtrack (Disc 1) (30-34)--------------------------------------------------------------------------------

DR Peak RMS Duration Track--------------------------------------------------------------------------------DR13 -0.01 dB -16.67 dB 0:26 04/34-Opening Suite: The ChaseDR6 -0.01 dB -8.31 dB 2:12 01/34-The First AwakeningDR9 -0.01 dB -13.15 dB 0:50 02/34-Cherished MemoriesDR11 -0.46 dB -16.35 dB 0:19 03/34-Opening Suite: The SearchDR10 -0.01 dB -14.61 dB 0:46 05/34-Opening Suite: The ChargeDR5 -0.01 dB -7.96 dB 1:29 06/34-Opening Suite: The AssaultDR8 -0.14 dB -10.25 dB 3:22 07/34-Clash of OppositesDR10 -0.01 dB -15.54 dB 1:04 08/34-Truths RevealedDR7 -0.01 dB -12.45 dB 0:35 09/34-All for HerDR12 -1.58 dB -15.69 dB 1:37 10/34-HomeDR7 -0.01 dB -10.02 dB 1:40 11/34-Gathering CloudsDR7 -0.01 dB -8.36 dB 4:11 13/34-FlamedropDR7 -1.10 dB -8.64 dB 3:57 14/34-Struggle EternalDR7 -0.01 dB -8.84 dB 2:26 15/34-Sliver of HopeDR7 -0.01 dB -9.47 dB 2:44 16/34-The Young MarquisDR7 -0.01 dB -9.15 dB 3:12 18/34-The City of HeroesDR7 -0.01 dB -7.95 dB 2:24 19/34-A Friendly EarDR7 -0.01 dB -8.78 dB 1:36 20/34-An Open MindDR8 -0.01 dB -10.13 dB 2:47 21/34-Fair JudgementDR6 -0.01 dB -7.70 dB 4:46 24/34-Rolling Hills. Sprawling PlainsDR8 -0.01 dB -9.07 dB 3:32 25/34-Sword SparksDR7 -0.01 dB -7.53 dB 2:45 26/34-Reversal!DR8 -0.01 dB -10.58 dB 1:30 27/34-Horns of VictoryDR7 -0.01 dB -8.30 dB 1:10 28/34-Evil's AdvanceDR6 -0.01 dB -7.90 dB 2:33 29/34-Glittering GoldDR9 -4.97 dB -16.90 dB 1:00 31/34-A Special GirlDR7 -0.01 dB -8.91 dB 2:48 32/34-Slipping Through Your FingersDR7 -0.01 dB -9.09 dB 0:57 33/34-The Ageless MageDR9 -0.01 dB -12.59 dB 2:14 34/34-The Bonds of FriendshipDR10 -0.01 dB -12.53 dB 2:41 12/34-Into the DepthsDR7 -0.01 dB -8.39 dB 1:03 17/34-The Known WorldDR10 -0.04 dB -12.06 dB 1:58 22/34-Ante UpDR9 -0.01 dB -11.64 dB 3:31 23/34-Creeping ShadowsDR9 -0.01 dB -10.86 dB 3:14 30/34-Dark Secrets--------------------------------------------------------------------------------

Number of tracks: 34Official DR value: DR8

Samplerate: 44100 HzChannels: 2Bits per sample: 16Bitrate: 825 kbpsCodec: FLAC================================================================================
Номер по каталогу: SQEX-10128
Треклист:
01. The Heavens' Majesty (3:34)
02. Gateway to the West (2:55)
03. The Seat of Vulcan (4:50)
04. Swirling Sands (4:31)
05. Free and Easy (2:53)
06. The Conqueror's Message (1:23)
07. Something About That Guy (0:47)
08. The Binding (1:08)
09. Arcane Mysteries (4:01)
10. Memories Regained (0:51)
11. Family (1:42)
12. Ancient Magicks (0:39)
13. The Curse (0:28)
14. The Marshalls (2:25)
15. Limberlost (3:44)
16. In the Shadow of the Dragon (2:35)
17. The Crumbling Fortress (3:15)
18. Old Traditions, New Methods (2:06)
19. Unrelenting Advance (2:54)
20. Fallen (0:39)
21. Catafalque (0:44)
22. A Son's Loss (1:54)
23. Vows Renewed (1:00)
24. Everflow (4:07)
25. Assembling the Puzzle (1:52)
26. The Gates of Hell (3:53)
27. A Sister's Faith (0:41)
28. The Price of Arrogance (1:18)
29. Reunited at Last (0:29)
30. Echoing Hallways (3:41)
31. Rewriting the Rules (1:02)
32. The Second Awakening (0:43)
33. Gwayn's Bellow (0:48)
34. The Remnant of Fear (0:44)
35. Marion's Blessing (0:49)
36. Whispers of the Ancients (3:30)
Exact Audio Copy V0.99 prebeta 4 from 23. January 2008

EAC extraction logfile from 10. May 2009, 10:37

Various / The Last Remnant Original Soundtrack (Disc 2)

Used drive : Optiarc DVD RW AD-7200S Adapter: 5 ID: 0

Read mode : SecureUtilize accurate stream : YesDefeat audio cache : YesMake use of C2 pointers : No

Read offset correction : 48Overread into Lead-In and Lead-Out : NoFill up missing offset samples with silence : YesDelete leading and trailing silent blocks : NoNull samples used in CRC calculations : YesUsed interface : Native Win32 interface for Win NT & 2000Gap handling : Appended to previous track

Used output format : User Defined EncoderSelected bitrate : 128 kBit/sQuality : HighAdd ID3 tag : NoCommand line compressor : G:\Program Files\Exact Audio Copy\Flac\flac.exeAdditional command line options : -8 -V -T "ARTIST=%a" -T "TITLE=%t" -T "ALBUM=%g" -T "DATE=%y" -T "TRACKNUMBER=%n" -T "GENRE=%m" -T "COMMENT=EAC FLAC -8" %s

TOC of the extracted CD

Track | Start | Length | Start sector | End sector --------------------------------------------------------- 1 | 0:00.00 | 3:33.53 | 0 | 16027 2 | 3:33.53 | 2:55.30 | 16028 | 29182 3 | 6:29.08 | 4:50.14 | 29183 | 50946 4 | 11:19.22 | 4:30.55 | 50947 | 71251 5 | 15:50.02 | 2:52.61 | 71252 | 84212 6 | 18:42.63 | 1:22.59 | 84213 | 90421 7 | 20:05.47 | 0:46.73 | 90422 | 93944 8 | 20:52.45 | 1:08.33 | 93945 | 99077 9 | 22:01.03 | 4:01.22 | 99078 | 117174 10 | 26:02.25 | 0:50.63 | 117175 | 120987 11 | 26:53.13 | 1:42.17 | 120988 | 128654 12 | 28:35.30 | 0:39.11 | 128655 | 131590 13 | 29:14.41 | 0:28.00 | 131591 | 133690 14 | 29:42.41 | 2:24.48 | 133691 | 144538 15 | 32:07.14 | 3:44.32 | 144539 | 161370 16 | 35:51.46 | 2:34.70 | 161371 | 172990 17 | 38:26.41 | 3:15.02 | 172991 | 187617 18 | 41:41.43 | 2:05.63 | 187618 | 197055 19 | 43:47.31 | 2:53.63 | 197056 | 210093 20 | 46:41.19 | 0:39.22 | 210094 | 213040 21 | 47:20.41 | 0:43.46 | 213041 | 216311 22 | 48:04.12 | 1:54.13 | 216312 | 224874 23 | 49:58.25 | 0:59.60 | 224875 | 229359 24 | 50:58.10 | 4:07.26 | 229360 | 247910 25 | 55:05.36 | 1:51.74 | 247911 | 256309 26 | 56:57.35 | 3:53.05 | 256310 | 273789 27 | 60:50.40 | 0:41.02 | 273790 | 276866 28 | 61:31.42 | 1:18.16 | 276867 | 282732 29 | 62:49.58 | 0:29.07 | 282733 | 284914 30 | 63:18.65 | 3:41.22 | 284915 | 301511 31 | 67:00.12 | 1:01.40 | 301512 | 306126 32 | 68:01.52 | 0:43.00 | 306127 | 309351 33 | 68:44.52 | 0:47.66 | 309352 | 312942 34 | 69:32.43 | 0:43.47 | 312943 | 316214 35 | 70:16.15 | 0:48.51 | 316215 | 319865 36 | 71:04.66 | 3:30.33 | 319866 | 335648

Track 1

Filename Q:\The Last Remnant Original Soundtrack (Disc 2)\01 Tsuyoshi Sekito - The Heavens' Majesty.wav

Pre-gap length 0:00:02.00

Peak level 99.9 % Track quality 100.0 % Test CRC CF908370 Copy CRC CF908370 Accurately ripped (confidence 2) [99F1DA53] Copy OK

Track 2

Filename Q:\The Last Remnant Original Soundtrack (Disc 2)\02 Tsuyoshi Sekito - Gateway to the West.wav

Peak level 99.9 % Track quality 100.0 % Test CRC 0E3E7CC1 Copy CRC 0E3E7CC1 Accurately ripped (confidence 2) [FFF2FC03] Copy OK

Track 3

Filename Q:\The Last Remnant Original Soundtrack (Disc 2)\03 Tsuyoshi Sekito - The Seat of Vulcan.wav

Peak level 99.9 % Track quality 100.0 % Test CRC 794128B1 Copy CRC 794128B1 Accurately ripped (confidence 2) [C6B82EB0] Copy OK

Track 4

Filename Q:\The Last Remnant Original Soundtrack (Disc 2)\04 Tsuyoshi Sekito - Swirling Sands.wav

Peak level 99.9 % Track quality 100.0 % Test CRC DD5B5FAB Copy CRC DD5B5FAB Accurately ripped (confidence 2) [33113FD4] Copy OK

Track 5

Filename Q:\The Last Remnant Original Soundtrack (Disc 2)\05 Tsuyoshi Sekito - Free and Easy.wav

Peak level 92.9 % Track quality 100.0 % Test CRC EB44CAB7 Copy CRC EB44CAB7 Accurately ripped (confidence 2) [DCC8B69D] Copy OK

Track 6

Filename Q:\The Last Remnant Original Soundtrack (Disc 2)\06 Tsuyoshi Sekito - The Conqueror's Message.wav

Peak level 91.9 % Track quality 100.0 % Test CRC 71EFD1C2 Copy CRC 71EFD1C2 Accurately ripped (confidence 2) [1B32F04C] Copy OK

Track 7

Filename Q:\The Last Remnant Original Soundtrack (Disc 2)\07 Tsuyoshi Sekito - Something About That Guy.wav

Peak level 73.3 % Track quality 100.0 % Test CRC 4B58954F Copy CRC 4B58954F Accurately ripped (confidence 2) [39B4EB7D] Copy OK

Track 8

Filename Q:\The Last Remnant Original Soundtrack (Disc 2)\08 Tsuyoshi Sekito - The Binding.wav

Peak level 99.9 % Track quality 100.0 % Test CRC B2EEE509 Copy CRC B2EEE509 Accurately ripped (confidence 2) [395DABF1] Copy OK

Track 9

Filename Q:\The Last Remnant Original Soundtrack (Disc 2)\09 Tsuyoshi Sekito - Arcane Mysteries.wav

Peak level 99.9 % Track quality 100.0 % Test CRC 4120CCDB Copy CRC 4120CCDB Accurately ripped (confidence 2) [C4F8FDF2] Copy OK

Track 10

Filename Q:\The Last Remnant Original Soundtrack (Disc 2)\10 Tsuyoshi Sekito - Memories Regained.wav

Peak level 83.5 % Track quality 100.0 % Test CRC A8285B47 Copy CRC A8285B47 Accurately ripped (confidence 2) [26B46747] Copy OK

Track 11

Filename Q:\The Last Remnant Original Soundtrack (Disc 2)\11 Tsuyoshi Sekito - Family.wav

Peak level 99.9 % Track quality 100.0 % Test CRC 7651BED5 Copy CRC 7651BED5 Accurately ripped (confidence 2) [E7BFE66A] Copy OK

Track 12

Filename Q:\The Last Remnant Original Soundtrack (Disc 2)\12 Tsuyoshi Sekito - Ancient Magicks.wav

Peak level 99.9 % Track quality 100.0 % Test CRC 7DC7CC3D Copy CRC 7DC7CC3D Accurately ripped (confidence 2) [C8031384] Copy OK

Track 13

Filename Q:\The Last Remnant Original Soundtrack (Disc 2)\13 Tsuyoshi Sekito - The Curse.wav

Peak level 93.0 % Track quality 100.0 % Test CRC EEAB376F Copy CRC EEAB376F Accurately ripped (confidence 2) [504E5094] Copy OK

Track 14

Filename Q:\The Last Remnant Original Soundtrack (Disc 2)\14 Tsuyoshi Sekito - The Marshalls.wav

Peak level 64.8 % Track quality 100.0 % Test CRC 959B9916 Copy CRC 959B9916 Accurately ripped (confidence 2) [11E5F473] Copy OK

Track 15

Filename Q:\The Last Remnant Original Soundtrack (Disc 2)\15 Tsuyoshi Sekito - Limberlost.wav

Peak level 99.9 % Track quality 100.0 % Test CRC F8866FF4 Copy CRC F8866FF4 Accurately ripped (confidence 2) [47897BD9] Copy OK

Track 16

Filename Q:\The Last Remnant Original Soundtrack (Disc 2)\16 Tsuyoshi Sekito - In the Shadow of the Dragon.wav

Peak level 99.9 % Track quality 100.0 % Test CRC 6201F8F2 Copy CRC 6201F8F2 Accurately ripped (confidence 2) [6B22CFF3] Copy OK

Track 17

Filename Q:\The Last Remnant Original Soundtrack (Disc 2)\17 Tsuyoshi Sekito - The Crumbling Fortress.wav

Peak level 99.9 % Track quality 100.0 % Test CRC 2832ED69 Copy CRC 2832ED69 Accurately ripped (confidence 2) [BA3927F6] Copy OK

Track 18

Filename Q:\The Last Remnant Original Soundtrack (Disc 2)\18 Tsuyoshi Sekito - Old Traditions, New Methods.wav

Peak level 99.9 % Track quality 99.9 % Test CRC 723DE99B Copy CRC 723DE99B Accurately ripped (confidence 2) [CE3FA161] Copy OK

Track 19

Filename Q:\The Last Remnant Original Soundtrack (Disc 2)\19 Tsuyoshi Sekito - Unrelenting Advance.wav

Peak level 99.9 % Track quality 100.0 % Test CRC 8AE69186 Copy CRC 8AE69186 Accurately ripped (confidence 2) [625379F6] Copy OK

Track 20

Filename Q:\The Last Remnant Original Soundtrack (Disc 2)\20 Tsuyoshi Sekito - Fallen.wav

Peak level 65.4 % Track quality 100.0 % Test CRC E4C66F9E Copy CRC E4C66F9E Accurately ripped (confidence 2) [E63B9435] Copy OK

Track 21

Filename Q:\The Last Remnant Original Soundtrack (Disc 2)\21 Tsuyoshi Sekito - Catafalque.wav

Peak level 99.9 % Track quality 100.0 % Test CRC 491103FE Copy CRC 491103FE Accurately ripped (confidence 2) [DFB03EC6] Copy OK

Track 22

Filename Q:\The Last Remnant Original Soundtrack (Disc 2)\22 Tsuyoshi Sekito - A Son's Loss.wav

Peak level 99.9 % Track quality 100.0 % Test CRC 0B1EBC00 Copy CRC 0B1EBC00 Accurately ripped (confidence 2) [25053A65] Copy OK

Track 23

Filename Q:\The Last Remnant Original Soundtrack (Disc 2)\23 Tsuyoshi Sekito - Vows Renewed.wav

Peak level 99.9 % Track quality 100.0 % Test CRC 6BACEDDF Copy CRC 6BACEDDF Accurately ripped (confidence 2) [3017BB77] Copy OK

Track 24

Filename Q:\The Last Remnant Original Soundtrack (Disc 2)\24 Yasuhiro Yamanaka - Everflow.wav

Peak level 99.9 % Track quality 100.0 % Test CRC 5CC97D24 Copy CRC 5CC97D24 Accurately ripped (confidence 2) [14CE4172] Copy OK

Track 25

Filename Q:\The Last Remnant Original Soundtrack (Disc 2)\25 Tsuyoshi Sekito - Assembling the Puzzle.wav

Peak level 99.9 % Track quality 100.0 % Test CRC 628133D2 Copy CRC 628133D2 Accurately ripped (confidence 2) [4631FF1F] Copy OK

Track 26

Filename Q:\The Last Remnant Original Soundtrack (Disc 2)\26 Tsuyoshi Sekito - The Gates of Hell.wav

Peak level 99.9 % Track quality 100.0 % Test CRC 5512A3E8 Copy CRC 5512A3E8 Accurately ripped (confidence 2) [DA7814D6] Copy OK

Track 27

Filename Q:\The Last Remnant Original Soundtrack (Disc 2)\27 Tsuyoshi Sekito - A Sister's Faith.wav

Peak level 73.5 % Track quality 100.0 % Test CRC FC44531F Copy CRC FC44531F Accurately ripped (confidence 2) [055F3BDC] Copy OK

Track 28

Filename Q:\The Last Remnant Original Soundtrack (Disc 2)\28 Tsuyoshi Sekito - The Price of Arrogance.wav

Peak level 99.9 % Track quality 100.0 % Test CRC 731AE1FF Copy CRC 731AE1FF Accurately ripped (confidence 2) [DBAB2BEF] Copy OK

Track 29

Filename Q:\The Last Remnant Original Soundtrack (Disc 2)\29 Tsuyoshi Sekito - Reunited at Last.wav

Peak level 69.1 % Track quality 100.0 % Test CRC B24149BB Copy CRC B24149BB Accurately ripped (confidence 2) [3503A35D] Copy OK

Track 30

Filename Q:\The Last Remnant Original Soundtrack (Disc 2)\30 Yasuhiro Yamanaka - Echoing Hallways.wav

Peak level 99.9 % Track quality 100.0 % Test CRC CC0F102A Copy CRC CC0F102A Accurately ripped (confidence 2) [08FCD32F] Copy OK

Track 31

Filename Q:\The Last Remnant Original Soundtrack (Disc 2)\31 Tsuyoshi Sekito - Rewriting the Rules.wav

Peak level 99.9 % Track quality 100.0 % Test CRC 18CD8023 Copy CRC 18CD8023 Accurately ripped (confidence 2) [221D5FBA] Copy OK

Track 32

Filename Q:\The Last Remnant Original Soundtrack (Disc 2)\32 Tsuyoshi Sekito - The Second Awakening.wav

Peak level 99.9 % Track quality 100.0 % Test CRC 9D3D1D19 Copy CRC 9D3D1D19 Accurately ripped (confidence 2) [179A5DBB] Copy OK

Track 33

Filename Q:\The Last Remnant Original Soundtrack (Disc 2)\33 Tsuyoshi Sekito - Gwayn's Bellow.wav

Peak level 99.9 % Track quality 100.0 % Test CRC D234CDCB Copy CRC D234CDCB Accurately ripped (confidence 2) [87CB2318] Copy OK

Track 34

Filename Q:\The Last Remnant Original Soundtrack (Disc 2)\34 Tsuyoshi Sekito - The Remnant of Fear.wav

Peak level 99.9 % Track quality 100.0 % Test CRC 0550B304 Copy CRC 0550B304 Accurately ripped (confidence 2) [9A6AAC19] Copy OK

Track 35

Filename Q:\The Last Remnant Original Soundtrack (Disc 2)\35 Tsuyoshi Sekito - Marion's Blessing.wav

Peak level 99.9 % Track quality 100.0 % Test CRC 16C01C36 Copy CRC 16C01C36 Accurately ripped (confidence 2) [5793BA7B] Copy OK

Track 36

Filename Q:\The Last Remnant Original Soundtrack (Disc 2)\36 Yasuhiro Yamanaka - Whispers of the Ancients.wav

Peak level 99.9 % Track quality 100.0 % Test CRC 70BA4716 Copy CRC 70BA4716 Accurately ripped (confidence 2) [4E858FC9] Copy OK

All tracks accurately ripped

No errors occurred

End of status report
REM GENRE GameREM DATE 2008REM DISCID F2117B24REM COMMENT "ExactAudioCopy v0.99pb4"PERFORMER "Various"TITLE "The Last Remnant Original Soundtrack (Disc 2)"FILE "01 The Heavens' Majesty.wav" WAVE TRACK 01 AUDIO TITLE "The Heavens' Majesty" PERFORMER "Tsuyoshi Sekito" INDEX 01 00:00:00FILE "02 Gateway to the West.wav" WAVE TRACK 02 AUDIO TITLE "Gateway to the West" PERFORMER "Tsuyoshi Sekito" INDEX 01 00:00:00FILE "03 The Seat of Vulcan.wav" WAVE TRACK 03 AUDIO TITLE "The Seat of Vulcan" PERFORMER "Tsuyoshi Sekito" INDEX 01 00:00:00FILE "04 Swirling Sands.wav" WAVE TRACK 04 AUDIO TITLE "Swirling Sands" PERFORMER "Tsuyoshi Sekito" INDEX 01 00:00:00FILE "05 Free and Easy.wav" WAVE TRACK 05 AUDIO TITLE "Free and Easy" PERFORMER "Tsuyoshi Sekito" INDEX 01 00:00:00FILE "06 The Conqueror's Message.wav" WAVE TRACK 06 AUDIO TITLE "The Conqueror's Message" PERFORMER "Tsuyoshi Sekito" INDEX 01 00:00:00FILE "07 Something About That Guy.wav" WAVE TRACK 07 AUDIO TITLE "Something About That Guy" PERFORMER "Tsuyoshi Sekito" INDEX 01 00:00:00FILE "08 The Binding.wav" WAVE TRACK 08 AUDIO TITLE "The Binding" PERFORMER "Tsuyoshi Sekito" INDEX 01 00:00:00FILE "09 Arcane Mysteries.wav" WAVE TRACK 09 AUDIO TITLE "Arcane Mysteries" PERFORMER "Tsuyoshi Sekito" INDEX 01 00:00:00FILE "10 Memories Regained.wav" WAVE TRACK 10 AUDIO TITLE "Memories Regained" PERFORMER "Tsuyoshi Sekito" INDEX 01 00:00:00FILE "11 Family.wav" WAVE TRACK 11 AUDIO TITLE "Family" PERFORMER "Tsuyoshi Sekito" INDEX 01 00:00:00FILE "12 Ancient Magicks.wav" WAVE TRACK 12 AUDIO TITLE "Ancient Magicks" PERFORMER "Tsuyoshi Sekito" INDEX 01 00:00:00FILE "13 The Curse.wav" WAVE TRACK 13 AUDIO TITLE "The Curse" PERFORMER "Tsuyoshi Sekito" INDEX 01 00:00:00FILE "14 The Marshalls.wav" WAVE TRACK 14 AUDIO TITLE "The Marshalls" PERFORMER "Tsuyoshi Sekito" INDEX 01 00:00:00FILE "15 Limberlost.wav" WAVE TRACK 15 AUDIO TITLE "Limberlost" PERFORMER "Tsuyoshi Sekito" INDEX 01 00:00:00FILE "16 In the Shadow of the Dragon.wav" WAVE TRACK 16 AUDIO TITLE "In the Shadow of the Dragon" PERFORMER "Tsuyoshi Sekito" INDEX 01 00:00:00FILE "17 The Crumbling Fortress.wav" WAVE TRACK 17 AUDIO TITLE "The Crumbling Fortress" PERFORMER "Tsuyoshi Sekito" INDEX 01 00:00:00FILE "18 Old Traditions, New Methods.wav" WAVE TRACK 18 AUDIO TITLE "Old Traditions, New Methods" PERFORMER "Tsuyoshi Sekito" INDEX 01 00:00:00FILE "19 Unrelenting Advance.wav" WAVE TRACK 19 AUDIO TITLE "Unrelenting Advance" PERFORMER "Tsuyoshi Sekito" INDEX 01 00:00:00FILE "20 Fallen.wav" WAVE TRACK 20 AUDIO TITLE "Fallen" PERFORMER "Tsuyoshi Sekito" INDEX 01 00:00:00FILE "21 Catafalque.wav" WAVE TRACK 21 AUDIO TITLE "Catafalque" PERFORMER "Tsuyoshi Sekito" INDEX 01 00:00:00FILE "22 A Son's Loss.wav" WAVE TRACK 22 AUDIO TITLE "A Son's Loss" PERFORMER "Tsuyoshi Sekito" INDEX 01 00:00:00FILE "23 Vows Renewed.wav" WAVE TRACK 23 AUDIO TITLE "Vows Renewed" PERFORMER "Tsuyoshi Sekito" INDEX 01 00:00:00FILE "24 Everflow.wav" WAVE TRACK 24 AUDIO TITLE "Everflow" PERFORMER "Yasuhiro Yamanaka" INDEX 01 00:00:00FILE "25 Assembling the Puzzle.wav" WAVE TRACK 25 AUDIO TITLE "Assembling the Puzzle" PERFORMER "Tsuyoshi Sekito" INDEX 01 00:00:00FILE "26 The Gates of Hell.wav" WAVE TRACK 26 AUDIO TITLE "The Gates of Hell" PERFORMER "Tsuyoshi Sekito" INDEX 01 00:00:00FILE "27 A Sister's Faith.wav" WAVE TRACK 27 AUDIO TITLE "A Sister's Faith" PERFORMER "Tsuyoshi Sekito" INDEX 01 00:00:00FILE "28 The Price of Arrogance.wav" WAVE TRACK 28 AUDIO TITLE "The Price of Arrogance" PERFORMER "Tsuyoshi Sekito" INDEX 01 00:00:00FILE "29 Reunited at Last.wav" WAVE TRACK 29 AUDIO TITLE "Reunited at Last" PERFORMER "Tsuyoshi Sekito" INDEX 01 00:00:00FILE "30 Echoing Hallways.wav" WAVE TRACK 30 AUDIO TITLE "Echoing Hallways" PERFORMER "Yasuhiro Yamanaka" INDEX 01 00:00:00FILE "31 Rewriting the Rules.wav" WAVE TRACK 31 AUDIO TITLE "Rewriting the Rules" PERFORMER "Tsuyoshi Sekito" INDEX 01 00:00:00FILE "32 The Second Awakening.wav" WAVE TRACK 32 AUDIO TITLE "The Second Awakening" PERFORMER "Tsuyoshi Sekito" INDEX 01 00:00:00FILE "33 Gwayn's Bellow.wav" WAVE TRACK 33 AUDIO TITLE "Gwayn's Bellow" PERFORMER "Tsuyoshi Sekito" INDEX 01 00:00:00FILE "34 The Remnant of Fear.wav" WAVE TRACK 34 AUDIO TITLE "The Remnant of Fear" PERFORMER "Tsuyoshi Sekito" INDEX 01 00:00:00FILE "35 Marion's Blessing.wav" WAVE TRACK 35 AUDIO TITLE "Marion's Blessing" PERFORMER "Tsuyoshi Sekito" INDEX 01 00:00:00FILE "36 Whispers of the Ancients.wav" WAVE TRACK 36 AUDIO TITLE "Whispers of the Ancients" PERFORMER "Yasuhiro Yamanaka" INDEX 01 00:00:00
foobar2000 1.3.14 / Dynamic Range Meter 1.1.1log date: 2017-01-12 01:08:06

--------------------------------------------------------------------------------Analyzed: Tsuyoshi Sekito / The Last Remnant Original Soundtrack (Disc 2) (1-33) Yasuhiro Yamanaka / The Last Remnant Original Soundtrack (Disc 2) (34-36)--------------------------------------------------------------------------------

DR Peak RMS Duration Track--------------------------------------------------------------------------------DR9 -0.01 dB -11.69 dB 3:34 01/36-The Heavens' MajestyDR7 -0.01 dB -9.78 dB 2:55 02/36-Gateway to the WestDR9 -0.01 dB -9.64 dB 4:50 03/36-The Seat of VulcanDR6 -0.01 dB -8.07 dB 4:31 04/36-Swirling SandsDR9 -0.63 dB -11.01 dB 2:53 05/36-Free and EasyDR9 -0.73 dB -14.03 dB 1:23 06/36-The Conqueror's MessageDR10 -2.69 dB -16.78 dB 0:47 07/36-Something About That GuyDR8 -0.01 dB -11.19 dB 1:08 08/36-The BindingDR7 -0.01 dB -8.02 dB 4:01 09/36-Arcane MysteriesDR9 -1.57 dB -16.27 dB 0:51 10/36-Memories RegainedDR10 -0.01 dB -12.46 dB 1:42 11/36-FamilyDR8 -0.01 dB -10.28 dB 0:39 12/36-Ancient MagicksDR8 -0.63 dB -11.35 dB 0:28 13/36-The CurseDR9 -3.76 dB -15.04 dB 2:25 14/36-The MarshallsDR9 -0.01 dB -9.78 dB 3:44 15/36-LimberlostDR8 -0.01 dB -10.08 dB 2:35 16/36-In the Shadow of the DragonDR9 -0.01 dB -10.98 dB 3:15 17/36-The Crumbling FortressDR8 -0.01 dB -11.29 dB 2:06 18/36-Old Traditions, New MethodsDR9 -0.01 dB -12.10 dB 2:54 19/36-Unrelenting AdvanceDR7 -3.68 dB -14.54 dB 0:39 20/36-FallenDR9 -0.01 dB -13.39 dB 0:44 21/36-CatafalqueDR8 -0.01 dB -11.40 dB 1:54 22/36-A Son's LossDR7 -0.01 dB -9.58 dB 1:00 23/36-Vows RenewedDR8 -0.01 dB -11.44 dB 1:52 25/36-Assembling the PuzzleDR6 -0.01 dB -7.49 dB 3:53 26/36-The Gates of HellDR10 -2.67 dB -17.70 dB 0:41 27/36-A Sister's FaithDR8 -0.01 dB -12.70 dB 1:18 28/36-The Price of ArroganceDR8 -3.21 dB -14.57 dB 0:29 29/36-Reunited at LastDR8 -0.01 dB -12.06 dB 1:02 31/36-Rewriting the RulesDR7 -0.01 dB -11.67 dB 0:43 32/36-The Second AwakeningDR7 -0.01 dB -8.74 dB 0:48 33/36-Gwayn's BellowDR8 -0.01 dB -10.59 dB 0:44 34/36-The Remnant of FearDR10 -0.01 dB -13.89 dB 0:49 35/36-Marion's BlessingDR10 -0.01 dB -11.74 dB 4:07 24/36-EverflowDR10 -0.01 dB -11.61 dB 3:41 30/36-Echoing HallwaysDR6 -0.01 dB -7.97 dB 3:30 36/36-Whispers of the Ancients--------------------------------------------------------------------------------

Number of tracks: 36Official DR value: DR8

Samplerate: 44100 HzChannels: 2Bits per sample: 16Bitrate: 875 kbpsCodec: FLAC================================================================================
Номер по каталогу: SQEX-10129
Треклист:
01. Breakers on the Shore (4:22)
02. Enter the Seven (1:01)
03. Life Without Remnants (3:20)
04. Hermeien's Ultimatum (2:06)
05. Accepting the Challenge (0:49)
06. Press to Victory (3:29)
07. Turn the Tide (4:03)
08. Unexpected Betrayal (0:55)
09. Out of Control (3:24)
10. Beat the Odds (3:00)
11. The Bitter End (0:15)
12. My Liege, My Enemy (1:09)
13. Wheat from Chaff (2:12)
14. Through the Tulgey Wood (5:21)
15. Unconditional Trust (0:33)
16. Echoes of the Past (2:57)
17. Final Decision (3:35)
18. Labyrinth (2:41)
19. One Step (3:29)
20. The Warden and the Activator (0:44)
21. Time for Release (2:22)
22. Nisus (4:50)
23. Schismogenesis (4:18)
24. The Final Sacrifice (3:57)
25. Journey's End (3:11)
26. Finale (5:40)
27. Overture: TGS 2007 Mix (1:48)
Exact Audio Copy V0.99 prebeta 4 from 23. January 2008

EAC extraction logfile from 10. May 2009, 12:43

Various / The Last Remnant Original Soundtrack (Disc 3)

Used drive : Optiarc DVD RW AD-7200S Adapter: 5 ID: 0

Read mode : SecureUtilize accurate stream : YesDefeat audio cache : YesMake use of C2 pointers : No

Read offset correction : 48Overread into Lead-In and Lead-Out : NoFill up missing offset samples with silence : YesDelete leading and trailing silent blocks : NoNull samples used in CRC calculations : YesUsed interface : Native Win32 interface for Win NT & 2000Gap handling : Appended to previous track

Used output format : User Defined EncoderSelected bitrate : 128 kBit/sQuality : HighAdd ID3 tag : NoCommand line compressor : G:\Program Files\Exact Audio Copy\Flac\flac.exeAdditional command line options : -8 -V -T "ARTIST=%a" -T "TITLE=%t" -T "ALBUM=%g" -T "DATE=%y" -T "TRACKNUMBER=%n" -T "GENRE=%m" -T "COMMENT=EAC FLAC -8" %s

TOC of the extracted CD

Track | Start | Length | Start sector | End sector --------------------------------------------------------- 1 | 0:00.00 | 4:22.35 | 0 | 19684 2 | 4:22.35 | 1:00.74 | 19685 | 24258 3 | 5:23.34 | 3:19.55 | 24259 | 39238 4 | 8:43.14 | 2:05.61 | 39239 | 48674 5 | 10:49.00 | 0:49.14 | 48675 | 52363 6 | 11:38.14 | 3:29.30 | 52364 | 68068 7 | 15:07.44 | 4:02.52 | 68069 | 86270 8 | 19:10.21 | 0:55.02 | 86271 | 90397 9 | 20:05.23 | 3:24.07 | 90398 | 105704 10 | 23:29.30 | 3:00.09 | 105705 | 119213 11 | 26:29.39 | 0:15.09 | 119214 | 120347 12 | 26:44.48 | 1:09.03 | 120348 | 125525 13 | 27:53.51 | 2:11.51 | 125526 | 135401 14 | 30:05.27 | 5:21.14 | 135402 | 159490 15 | 35:26.41 | 0:32.67 | 159491 | 161957 16 | 35:59.33 | 2:57.34 | 161958 | 175266 17 | 38:56.67 | 3:34.56 | 175267 | 191372 18 | 42:31.48 | 2:41.20 | 191373 | 203467 19 | 45:12.68 | 3:28.52 | 203468 | 219119 20 | 48:41.45 | 0:44.12 | 219120 | 222431 21 | 49:25.57 | 2:21.71 | 222432 | 233077 22 | 51:47.53 | 4:49.62 | 233078 | 254814 23 | 56:37.40 | 4:17.71 | 254815 | 274160 24 | 60:55.36 | 3:56.49 | 274161 | 291909 25 | 64:52.10 | 3:10.55 | 291910 | 306214 26 | 68:02.65 | 5:39.60 | 306215 | 331699 27 | 73:42.50 | 1:48.03 | 331700 | 339802

Track 1

Filename Q:\The Last Remnant Original Soundtrack (Disc 3)\01 Tsuyoshi Sekito - Breakers on the Shore.wav

Pre-gap length 0:00:02.00

Peak level 99.9 % Track quality 100.0 % Test CRC FFB20ADD Copy CRC FFB20ADD Accurately ripped (confidence 2) [42080F6D] Copy OK

Track 2

Filename Q:\The Last Remnant Original Soundtrack (Disc 3)\02 Tsuyoshi Sekito - Enter the Seven.wav

Peak level 99.9 % Track quality 100.0 % Test CRC F51C08BA Copy CRC F51C08BA Accurately ripped (confidence 2) [404308CE] Copy OK

Track 3

Filename Q:\The Last Remnant Original Soundtrack (Disc 3)\03 Tsuyoshi Sekito - Life Without Remnants.wav

Peak level 99.9 % Track quality 100.0 % Test CRC F0AFF3B7 Copy CRC F0AFF3B7 Accurately ripped (confidence 2) [26B48D50] Copy OK

Track 4

Filename Q:\The Last Remnant Original Soundtrack (Disc 3)\04 Tsuyoshi Sekito - Hermeien's Ultimatum.wav

Peak level 99.9 % Track quality 100.0 % Test CRC 9A2F3999 Copy CRC 9A2F3999 Accurately ripped (confidence 2) [3781E67D] Copy OK

Track 5

Filename Q:\The Last Remnant Original Soundtrack (Disc 3)\05 Tsuyoshi Sekito - Accepting the Challenge.wav

Peak level 99.9 % Track quality 100.0 % Test CRC E002C1E3 Copy CRC E002C1E3 Accurately ripped (confidence 2) [9B8993AA] Copy OK

Track 6

Filename Q:\The Last Remnant Original Soundtrack (Disc 3)\06 Tsuyoshi Sekito - Press to Victory.wav

Peak level 99.9 % Track quality 100.0 % Test CRC 3150B30C Copy CRC 3150B30C Accurately ripped (confidence 2) [400C5DD9] Copy OK

Track 7

Filename Q:\The Last Remnant Original Soundtrack (Disc 3)\07 Tsuyoshi Sekito - Turn the Tide.wav

Peak level 99.9 % Track quality 100.0 % Test CRC B85D9C23 Copy CRC B85D9C23 Accurately ripped (confidence 2) [802F819A] Copy OK

Track 8

Filename Q:\The Last Remnant Original Soundtrack (Disc 3)\08 Tsuyoshi Sekito - Unexpected Betrayal.wav

Peak level 99.9 % Track quality 100.0 % Test CRC 5525DDC0 Copy CRC 5525DDC0 Accurately ripped (confidence 2) [909A2021] Copy OK

Track 9

Filename Q:\The Last Remnant Original Soundtrack (Disc 3)\09 Tsuyoshi Sekito - Out of Control.wav

Peak level 99.9 % Track quality 100.0 % Test CRC AEC4C1CD Copy CRC AEC4C1CD Accurately ripped (confidence 2) [ED3FCF87] Copy OK

Track 10

Filename Q:\The Last Remnant Original Soundtrack (Disc 3)\10 Tsuyoshi Sekito - Beat the Odds.wav

Peak level 99.9 % Track quality 100.0 % Test CRC DF3C58C9 Copy CRC DF3C58C9 Accurately ripped (confidence 2) [72AFC9AE] Copy OK

Track 11

Filename Q:\The Last Remnant Original Soundtrack (Disc 3)\11 Tsuyoshi Sekito - The Bitter End.wav

Peak level 99.9 % Track quality 100.0 % Test CRC FECAE3EC Copy CRC FECAE3EC Accurately ripped (confidence 2) [E2D2356B] Copy OK

Track 12

Filename Q:\The Last Remnant Original Soundtrack (Disc 3)\12 Tsuyoshi Sekito - My Liege, My Enemy.wav

Peak level 99.9 % Track quality 100.0 % Test CRC D849B676 Copy CRC D849B676 Accurately ripped (confidence 2) [9693264D] Copy OK

Track 13

Filename Q:\The Last Remnant Original Soundtrack (Disc 3)\13 Tsuyoshi Sekito - Wheat from Chaff.wav

Peak level 99.9 % Track quality 100.0 % Test CRC 0220FCFE Copy CRC 0220FCFE Accurately ripped (confidence 2) [E409A0AA] Copy OK

Track 14

Filename Q:\The Last Remnant Original Soundtrack (Disc 3)\14 Tsuyoshi Sekito - Through the Tulgey Wood.wav

Peak level 99.9 % Track quality 100.0 % Test CRC 93C3CE9C Copy CRC 93C3CE9C Accurately ripped (confidence 2) [7B6A4403] Copy OK

Track 15

Filename Q:\The Last Remnant Original Soundtrack (Disc 3)\15 Tsuyoshi Sekito - Unconditional Trust.wav

Peak level 75.2 % Track quality 99.6 % Test CRC 005D0F8A Copy CRC 005D0F8A Accurately ripped (confidence 2) [A912FE77] Copy OK

Track 16

Filename Q:\The Last Remnant Original Soundtrack (Disc 3)\16 Tsuyoshi Sekito - Echoes of the Past.wav

Peak level 99.9 % Track quality 100.0 % Test CRC 4CB34089 Copy CRC 4CB34089 Accurately ripped (confidence 2) [C8571FD8] Copy OK

Track 17

Filename Q:\The Last Remnant Original Soundtrack (Disc 3)\17 Tsuyoshi Sekito - Final Decision.wav

Peak level 99.9 % Track quality 100.0 % Test CRC E513414D Copy CRC E513414D Accurately ripped (confidence 2) [E0002703] Copy OK

Track 18

Filename Q:\The Last Remnant Original Soundtrack (Disc 3)\18 Tsuyoshi Sekito - Labyrinth.wav

Peak level 99.9 % Track quality 100.0 % Test CRC 850896E1 Copy CRC 850896E1 Accurately ripped (confidence 2) [500C1E8F] Copy OK

Track 19

Filename Q:\The Last Remnant Original Soundtrack (Disc 3)\19 Yasuhiro Yamanaka - One Step.wav

Peak level 99.9 % Track quality 100.0 % Test CRC 78B75E7D Copy CRC 78B75E7D Accurately ripped (confidence 2) [E3315A4A] Copy OK

Track 20

Filename Q:\The Last Remnant Original Soundtrack (Disc 3)\20 Yasuhiro Yamanaka - The Warden and the Activator.wav

Peak level 99.9 % Track quality 99.7 % Test CRC CBD34477 Copy CRC CBD34477 Accurately ripped (confidence 2) [0CB0318E] Copy OK

Track 21

Filename Q:\The Last Remnant Original Soundtrack (Disc 3)\21 Tsuyoshi Sekito - Time for Release.wav

Peak level 99.8 % Track quality 100.0 % Test CRC 1A3DD4BD Copy CRC 1A3DD4BD Accurately ripped (confidence 2) [948DB4F4] Copy OK

Track 22

Filename Q:\The Last Remnant Original Soundtrack (Disc 3)\22 Tsuyoshi Sekito - Nisus.wav

Peak level 99.9 % Track quality 100.0 % Test CRC E6D1481C Copy CRC E6D1481C Accurately ripped (confidence 2) [8DE0AB00] Copy OK

Track 23

Filename Q:\The Last Remnant Original Soundtrack (Disc 3)\23 Tsuyoshi Sekito - Schismogenesis.wav

Peak level 99.9 % Track quality 100.0 % Test CRC FB6D8A66 Copy CRC FB6D8A66 Accurately ripped (confidence 2) [2F11EFE1] Copy OK

Track 24

Filename Q:\The Last Remnant Original Soundtrack (Disc 3)\24 Tsuyoshi Sekito - The Final Sacrifice.wav

Peak level 99.9 % Track quality 100.0 % Test CRC DE063197 Copy CRC DE063197 Accurately ripped (confidence 2) [AF409B8E] Copy OK

Track 25

Filename Q:\The Last Remnant Original Soundtrack (Disc 3)\25 Tsuyoshi Sekito - Journey's End.wav

Peak level 99.9 % Track quality 100.0 % Test CRC FD7716BF Copy CRC FD7716BF Accurately ripped (confidence 2) [00ACF2A4] Copy OK

Track 26

Filename Q:\The Last Remnant Original Soundtrack (Disc 3)\26 Tsuyoshi Sekito - Finale.wav

Peak level 99.9 % Track quality 100.0 % Test CRC AFC04B3B Copy CRC AFC04B3B Accurately ripped (confidence 2) [94D9F525] Copy OK

Track 27

Filename Q:\The Last Remnant Original Soundtrack (Disc 3)\27 Tsuyoshi Sekito, Yasuhiro Yamanaka - Overture- TGS 2007 Mix.wav

Peak level 99.9 % Track quality 100.0 % Test CRC FE27C9A9 Copy CRC FE27C9A9 Accurately ripped (confidence 2) [EC32853A] Copy OK

All tracks accurately ripped

No errors occurred

End of status report
REM GENRE GameREM DATE 2008REM DISCID 8011B21BREM COMMENT "ExactAudioCopy v0.99pb4"PERFORMER "Various"TITLE "The Last Remnant Original Soundtrack (Disc 3)"FILE "01 Breakers on the Shore.wav" WAVE TRACK 01 AUDIO TITLE "Breakers on the Shore" PERFORMER "Tsuyoshi Sekito" INDEX 01 00:00:00FILE "02 Enter the Seven.wav" WAVE TRACK 02 AUDIO TITLE "Enter the Seven" PERFORMER "Tsuyoshi Sekito" INDEX 01 00:00:00FILE "03 Life Without Remnants.wav" WAVE TRACK 03 AUDIO TITLE "Life Without Remnants" PERFORMER "Tsuyoshi Sekito" INDEX 01 00:00:00FILE "04 Hermeien's Ultimatum.wav" WAVE TRACK 04 AUDIO TITLE "Hermeien's Ultimatum" PERFORMER "Tsuyoshi Sekito" INDEX 01 00:00:00FILE "05 Accepting the Challenge.wav" WAVE TRACK 05 AUDIO TITLE "Accepting the Challenge" PERFORMER "Tsuyoshi Sekito" INDEX 01 00:00:00FILE "06 Press to Victory.wav" WAVE TRACK 06 AUDIO TITLE "Press to Victory" PERFORMER "Tsuyoshi Sekito" INDEX 01 00:00:00FILE "07 Turn the Tide.wav" WAVE TRACK 07 AUDIO TITLE "Turn the Tide" PERFORMER "Tsuyoshi Sekito" INDEX 01 00:00:00FILE "08 Unexpected Betrayal.wav" WAVE TRACK 08 AUDIO TITLE "Unexpected Betrayal" PERFORMER "Tsuyoshi Sekito" INDEX 01 00:00:00FILE "09 Out of Control.wav" WAVE TRACK 09 AUDIO TITLE "Out of Control" PERFORMER "Tsuyoshi Sekito" INDEX 01 00:00:00FILE "10 Beat the Odds.wav" WAVE TRACK 10 AUDIO TITLE "Beat the Odds" PERFORMER "Tsuyoshi Sekito" INDEX 01 00:00:00FILE "11 The Bitter End.wav" WAVE TRACK 11 AUDIO TITLE "The Bitter End" PERFORMER "Tsuyoshi Sekito" INDEX 01 00:00:00FILE "12 My Liege, My Enemy.wav" WAVE TRACK 12 AUDIO TITLE "My Liege, My Enemy" PERFORMER "Tsuyoshi Sekito" INDEX 01 00:00:00FILE "13 Wheat from Chaff.wav" WAVE TRACK 13 AUDIO TITLE "Wheat from Chaff" PERFORMER "Tsuyoshi Sekito" INDEX 01 00:00:00FILE "14 Through the Tulgey Wood.wav" WAVE TRACK 14 AUDIO TITLE "Through the Tulgey Wood" PERFORMER "Tsuyoshi Sekito" INDEX 01 00:00:00FILE "15 Unconditional Trust.wav" WAVE TRACK 15 AUDIO TITLE "Unconditional Trust" PERFORMER "Tsuyoshi Sekito" INDEX 01 00:00:00FILE "16 Echoes of the Past.wav" WAVE TRACK 16 AUDIO TITLE "Echoes of the Past" PERFORMER "Tsuyoshi Sekito" INDEX 01 00:00:00FILE "17 Final Decision.wav" WAVE TRACK 17 AUDIO TITLE "Final Decision" PERFORMER "Tsuyoshi Sekito" INDEX 01 00:00:00FILE "18 Labyrinth.wav" WAVE TRACK 18 AUDIO TITLE "Labyrinth" PERFORMER "Tsuyoshi Sekito" INDEX 01 00:00:00FILE "19 One Step.wav" WAVE TRACK 19 AUDIO TITLE "One Step" PERFORMER "Yasuhiro Yamanaka" INDEX 01 00:00:00FILE "20 The Warden and the Activator.wav" WAVE TRACK 20 AUDIO TITLE "The Warden and the Activator" PERFORMER "Yasuhiro Yamanaka" INDEX 01 00:00:00FILE "21 Time for Release.wav" WAVE TRACK 21 AUDIO TITLE "Time for Release" PERFORMER "Tsuyoshi Sekito" INDEX 01 00:00:00FILE "22 Nisus.wav" WAVE TRACK 22 AUDIO TITLE "Nisus" PERFORMER "Tsuyoshi Sekito" INDEX 01 00:00:00FILE "23 Schismogenesis.wav" WAVE TRACK 23 AUDIO TITLE "Schismogenesis" PERFORMER "Tsuyoshi Sekito" INDEX 01 00:00:00FILE "24 The Final Sacrifice.wav" WAVE TRACK 24 AUDIO TITLE "The Final Sacrifice" PERFORMER "Tsuyoshi Sekito" INDEX 01 00:00:00FILE "25 Journey's End.wav" WAVE TRACK 25 AUDIO TITLE "Journey's End" PERFORMER "Tsuyoshi Sekito" INDEX 01 00:00:00FILE "26 Finale.wav" WAVE TRACK 26 AUDIO TITLE "Finale" PERFORMER "Tsuyoshi Sekito" INDEX 01 00:00:00FILE "27 Overture TGS 2007 Mix.wav" WAVE TRACK 27 AUDIO TITLE "Overture: TGS 2007 Mix" PERFORMER "Tsuyoshi Sekito, Yasuhiro Yamanaka" INDEX 01 00:00:00
foobar2000 1.3.14 / Dynamic Range Meter 1.1.1log date: 2017-01-12 01:16:25

--------------------------------------------------------------------------------Analyzed: Tsuyoshi Sekito, Yasuhiro Yamanaka / The Last Remnant Original Soundtrack (Disc 3) (1) Tsuyoshi Sekito / The Last Remnant Original Soundtrack (Disc 3) (2-25) Yasuhiro Yamanaka / The Last Remnant Original Soundtrack (Disc 3) (26-27)--------------------------------------------------------------------------------

DR Peak RMS Duration Track--------------------------------------------------------------------------------DR6 -0.01 dB -8.28 dB 1:48 27/27-Overture: TGS 2007 MixDR8 -0.01 dB -10.01 dB 4:22 01/27-Breakers on the ShoreDR9 -0.01 dB -14.12 dB 1:01 02/27-Enter the SevenDR9 -0.01 dB -11.10 dB 3:20 03/27-Life Without RemnantsDR9 -0.01 dB -13.22 dB 2:06 04/27-Hermeien's UltimatumDR8 -0.01 dB -10.81 dB 0:49 05/27-Accepting the ChallengeDR7 -0.01 dB -8.11 dB 3:29 06/27-Press to VictoryDR7 -0.01 dB -8.42 dB 4:03 07/27-Turn the TideDR7 -0.01 dB -8.58 dB 0:55 08/27-Unexpected BetrayalDR7 -0.01 dB -8.07 dB 3:24 09/27-Out of ControlDR6 -0.01 dB -6.96 dB 3:00 10/27-Beat the OddsDR6 -0.01 dB -9.05 dB 0:15 11/27-The Bitter EndDR6 -0.01 dB -9.40 dB 1:09 12/27-My Liege, My EnemyDR7 -0.01 dB -10.98 dB 2:12 13/27-Wheat from ChaffDR7 -0.01 dB -9.21 dB 5:21 14/27-Through the Tulgey WoodDR8 -2.48 dB -14.49 dB 0:33 15/27-Unconditional TrustDR9 -0.01 dB -10.66 dB 2:57 16/27-Echoes of the PastDR7 -0.01 dB -11.36 dB 3:35 17/27-Final DecisionDR10 -0.01 dB -11.82 dB 2:41 18/27-LabyrinthDR9 -0.01 dB -12.16 dB 2:22 21/27-Time for ReleaseDR6 -0.01 dB -7.61 dB 4:50 22/27-NisusDR6 -0.01 dB -7.38 dB 4:18 23/27-SchismogenesisDR6 -0.01 dB -9.71 dB 3:57 24/27-The Final SacrificeDR5 -0.01 dB -9.57 dB 3:11 25/27-Journey's EndDR6 -0.01 dB -8.43 dB 5:40 26/27-FinaleDR9 -0.01 dB -10.16 dB 3:29 19/27-One StepDR8 -0.01 dB -11.64 dB 0:44 20/27-The Warden and the Activator--------------------------------------------------------------------------------

Number of tracks: 27Official DR value: DR7

Samplerate: 44100 HzChannels: 2Bits per sample: 16Bitrate: 638 kbpsCodec: FLAC================================================================================
Music Composed & Produced by Tsuyoshi Sekito

Synthesizer Operation & Music: Yasuhiro Yamanaka
(Yasuhiro Yamanaka composed Disc 1 4 w/ Sekito, 12, 17, 22, 23, 30, Disc 2 24, 30, 36, Disc 3 19, 20, 27 w/ Sekito)

Electric Guitar: Tsuyoshi Sekito
Mixing & Mastering Engineer: Yasuhiro Yamanaka (Q/11A E07 STUDIO)

Orchestration by Natsumi Kameoka

Disc 1 Track 02, 03, 05, 06
Disc 2 Track 33, 34, 35
Disc 3 Track 24, 25, 26

Vocalist: Donna Burke (Disc 3 Track 25)
Lyrics: DAGMUSIC LTD. (Disc 3 Track 25)
Sound Effect: Kenichi Mikoshiba (Disc 1 Track 01)
Recording & Mixing Studio: VICTOR STUDIO, SOUND INN STUDIOS
Recording & Mixing Engineer: Yoichiro Kano (MIXER'S LAB)
Assistant Engineers: Takahiro Ohkubo (VICTOR STUDIO), Kazunori Yamada (SOUND INN STUDIOS)

Conductor: Taizo Takemoto

Violins:
Masatsugu Shinozaki
Tomoshige Yamamoto
Yuriko Mori
Kiyo Kido
Tsunehiro Shigyo
Kiyono Aihara
Shohei Yoshida
Kei Shinozaki
Ai Shinozaki
Yukiko Teraoka
Tairiku Sada
Ken Okabe
Kenta Kuroki
Osamu Iyoku

Violas:
Sachie Oonuma
Fumiko Aoki
Mikiyo Kikuchi
Tsuyoshi Tomono

Violoncellos:
Masami Horisawa
Akina Karasawa
Takahiro Yuki
Gen Asabuki

Contrabasses:
Jun Saito
Naohiro Nasuno
Sumi Tamaki

Flutes:
Hideyo Takakuwa
Junko Wakamatsu

Oboes:
Hiroshi Shibayama
Masaaki Kawamura

Clarinets:
Kimio Yamane
Naoki Hayashi

Bassoons:
Masashi Maeda
Keisuke Nojima

Horns:
Otohiko Fujita
You Okamura
Tsutomu Isohata
Takanori Takahashi

Trumpets:
Koji Nishimura
Masahiko Sugasaka
Hitoshi Yokoyama

Trombones:
Masanori Hirohara
Kanade Shishiuchi
Shunji Yamaguchi

Tuba: Kiyoshi Sato

Timpani: Midori Takada

Percussion:
Tomoko Kusakari
Yuki Hasegawa
Marie Oishi

Harp: Tomoyuki Asakawa

Piano: Haruki Mino

Chorus:
Katsuhiro Kobayashi
Tomoko Kamino
Kazuyuki Uchida
Shio Kinose
Natsumi Watanabe
Ayumi Ikehata
Yusei Morita
Takahiko Kumagai
Masamitsu Fujimaki
Akira Yukawa
Kaori Udagawa
Takahito Asai
Etsuko Watanabe
Reiko Iio
Kyoko Kondou
Takefumi Horie

Acoustic Guitar: Hirokazu Ogura (Disc 3 Track 25)

Electric Guitar: Tsuyoshi Sekito (Disc 3 Track 25)

Drums: Rob Gray (Disc 3 Track 25)


Трекер:  [ 12-Янв-2017 00:30 ]

  

Скачать .torrent

Размер .torrent файла 22 KB


Размер: 1.45 GB
Хэш (hash) релиза: 23f741036e826ed9c05542f8e4f36615d0212bc8

Торренты, похожие на The Last Remnant Original Soundtrack скачать торрент

Форум Название Автор Размер S L Добавлен
Саундтреки к играм (mp3) ·· (Soundtrack) The Last Remnant Original Soundtrack - 2008, MP3 (tracks), VBR 192-320 kbps Galfimbul 420385122401 MB 0 0 1292261080

20:24

13-Дек-10

Еще никто не оставлял запись к записи скачать торрент The Last Remnant Original Soundtrack . Будь первым!

!Обратная связь