Скачать через торрент Охотники на троллей Trollhunters Фильм бесплатно в хорошем качестве torrent

Скачивайте на UnionPeer.org фильмы через торрент без регистрации. Новинки кино в хорошем качестве через торрент. На UnionPeer.org можно скачать через торрент фильмы 2014 и 2015 годов. Самые новые фильмы.

Скачать торрент Охотники на троллей Trollhunters бесплатно через .torrent фильм мультфильм сериал

Статистика раздачи
Размер:  3.13 GB   |    Зарегистрирован:  5 дней   |    .torrent скачан:  17 раз   |   
Раздают:  1  
   
Загрузка...
 
Автор Сообщение

Galfimbul

avatar Galfimbul




Охотники на троллей / Trollhunters
1 сезон, 1-6 серии

Год выхода: 2016
Страна: США, Netflix
Жанр: мультфильм, фэнтези, комедия, приключения
Продолжительность: 00:22:18
Озвучание: профессиональное многоголосое закадровое (AlexFilm)
Режиссёры: Родриго Блаас, Грег Тирнан
Сценарий: Марк Хеймс, Том Вилер, Гильермо дель Торо
Описание: В руки пятнадцатилетнему юноше попадает Магический Амулет, который даёт ему звание охотника на троллей, призванного защищать троллей, живущих под землёй — под человеческим городом Аркадия. «Охотники на троллей» - мультсериал в жанре комедии и фэнтези, вышедший в 2016 году. Он расскажет о легендарной битве, участниками которой станут люди и тролли.
Релиз:

Перевод: Константин Кривоногов
Монтаж и сведение звука: Михаил Суслов
Роли озвучивали:
<div style="margin-left: 2em" class="post-ul">
<ol class="post-ul">
Алёна Андронова
Маргарита Корш
Екатерина Муравицкая
Петр Гланц Иващенко
Артём Бахтин
Станислав Черсков
Владимир Курдов
Михаил Суслов
</ol>
</div>
Сэмпл: http://sendfile.su/1296679

Качество видео: WEBRip 720
Формат: MKV
Видео: 1280x720 (1.80:1), 23.976 fps, MPEG-4 ~2100 kbps avg, 0.094 bit/pixel
Аудио Rus: 48 kHz, AC3 Dolby Digital, 3/2 (L,C,R,l,r) + LFE ch, ~384.00 kbps
Аудио Eng: 48 kHz, AC3 Dolby Digital, 3/2 (L,C,R,l,r) + LFE ch, ~384.00 kbps
Субтитры: нет
Формат : Matroska
Версия формата : Version 4 / Version 2
Размер файла : 461 Мбайт
Продолжительность : 22 м. 11 с.
Общий поток : 2904 Кбит/сек
Название фильма : Trollhunters 1x01 @ AlexFilm
Дата кодирования : UTC 2017-01-06 11:18:45
Программа кодирования : mkvmerge v7.1.0 ('Good Love') 64bit built on Jul 27 2014 13:06:55
Библиотека кодирования : libebml v1.3.0 + libmatroska v1.4.1

Видео
Идентификатор : 1
Формат : AVC
Формат/Информация : Advanced Video Codec
Профиль формата : High@L4.1
Параметр CABAC формата : Да
Параметр ReFrames формата : 9 кадров
Идентификатор кодека : V_MPEG4/ISO/AVC
Продолжительность : 22 м. 11 с.
Битрейт : 2078 Кбит/сек
Ширина : 1280 пикселей
Высота : 720 пикселей
Соотношение сторон : 16:9
Режим частоты кадров : Постоянный
Частота кадров : 23,976 (24000/1001) кадра/сек
Цветовое пространство : YUV
Субдискретизация насыщенности : 4:2:0
Битовая глубина : 8 бит
Тип развёртки : Прогрессивная
Бит/(Пиксели*Кадры) : 0.094
Размер потока : 330 Мбайт (72%)
Библиотека кодирования : x264 core 148 r2638 7599210
Настройки программы : cabac=1 / ref=9 / deblock=1:-3:-3 / analyse=0x3:0x133 / me=umh / subme=11 / psy=1 / psy_rd=0.40:0.00 / mixed_ref=1 / me_range=32 / chroma_me=1 / trellis=2 / 8x8dct=1 / cqm=0 / deadzone=21,11 / fast_pskip=0 / chroma_qp_offset=-2 / threads=12 / lookahead_threads=1 / sliced_threads=0 / nr=0 / decimate=1 / interlaced=0 / bluray_compat=0 / constrained_intra=0 / bframes=5 / b_pyramid=2 / b_adapt=2 / b_bias=0 / direct=3 / weightb=1 / open_gop=0 / weightp=2 / keyint=240 / keyint_min=23 / scenecut=40 / intra_refresh=0 / rc_lookahead=60 / rc=crf / mbtree=1 / crf=18.0 / qcomp=0.60 / qpmin=0 / qpmax=69 / qpstep=4 / ip_ratio=1.40 / aq=3:0.70
Default : Да
Forced : Нет

Аудио #1
Идентификатор : 2
Формат : AC-3
Формат/Информация : Audio Coding 3
Расширение режима : CM (complete main)
Параметр Endianness формата : Big
Идентификатор кодека : A_AC3
Продолжительность : 22 м. 11 с.
Вид битрейта : Постоянный
Битрейт : 384 Кбит/сек
Каналы : 6 каналов
Расположение каналов : Front: L C R, Side: L R, LFE
Частота : 48,0 КГц
Частота кадров : 31,250 кадров/сек (1536 spf)
Метод сжатия : С потерями
Размер потока : 61,0 Мбайт (13%)
Заголовок : DD5.1 AlexFilm
Язык : Russian
Default : Да
Forced : Нет

Аудио #2
Идентификатор : 3
Формат : AC-3
Формат/Информация : Audio Coding 3
Расширение режима : CM (complete main)
Параметр Endianness формата : Big
Идентификатор кодека : A_AC3
Продолжительность : 22 м. 11 с.
Вид битрейта : Постоянный
Битрейт : 384 Кбит/сек
Каналы : 6 каналов
Расположение каналов : Front: L C R, Side: L R, LFE
Частота : 48,0 КГц
Частота кадров : 31,250 кадров/сек (1536 spf)
Метод сжатия : С потерями
Размер потока : 61,0 Мбайт (13%)
Заголовок : DD5.1 Original
Язык : English
Default : Нет
Forced : Нет
Внимание! Раздача ведётся путём добавления новых серий; при каждом добавлении создаётся новый торрент. Чтобы начать докачку новой серии, пользователям необходимо сделать следующее:
(1) остановить скачивание,
(2) удалить старый торрент у себя из клиента (старые серии удалять не надо),
(3) скачать новый торрент и запустить его у себя в клиенте вместо старого, при этом указать клиенту путь в старую папку куда и должно происходить скачивание новых серий.
Ваш клиент при этом должен произвести хеширование (проверку) старой папки (если не производит сам - помогите ему сделать это), и будет докачивать только те серии которых у вас ещё нет. Старые серии при этом не удаляются, а продолжают раздаваться!
Eсли вы уже удалили старые серии, то предотвратить повторную закачку старых серий можно, отжав галочку в соответствующих местах при запуске нового торрента. По возможности, желательно не удалять старые серии как можно дольше чтобы релизёр не столько продолжал раздавать старые серии, а смог сконцентрироваться на новых.

<a href="tracker.php?f=921&nm=Trollhunters" class="postLink">Ссылка на предыдущие и альтернативные раздачи</a>


Трекер:  [ 12-Янв-2017 06:30 ]

  

Скачать .torrent

Размер .torrent файла 16 KB


Размер: 3.13 GB
Хэш (hash) релиза: 6d90a9e8b630d0f26fecccf7fcc0b1ef3bb3bbea
Подписка на обновления:

Торренты, похожие на Охотники на троллей Trollhunters скачать торрент

Форум Название Автор Размер S L Добавлен
Мультсериалы ·· Охотники на троллей / Trollhunters / Сезон: 1 / Серии: 1-6 (26) (Родриго Блаас, Грег Тирнан) [2016, США, мультфильм, фэнтези, комедия, приключения, WEBRip] MVO (AlexFilm) Galfimbul 17089351681.59 GB 0 0 1484193649

07:00

12-Янв-17

Еще никто не оставлял запись к записи скачать торрент Охотники на троллей Trollhunters . Будь первым!

!Обратная связь