Скачать через торрент Охотники на троллей Trollhunters Фильм бесплатно в хорошем качестве torrent

Скачивайте на UnionPeer.org фильмы через торрент без регистрации. Новинки кино в хорошем качестве через торрент. На UnionPeer.org можно скачать через торрент фильмы 2014 и 2015 годов. Самые новые фильмы.

Скачать торрент Охотники на троллей Trollhunters бесплатно через .torrent фильм мультфильм сериал

Статистика раздачи
Размер:  1.59 GB   |    Зарегистрирован:  5 дней   |    .torrent скачан:  19 раз   |   
Раздают:  1  
   
Загрузка...
 
Автор Сообщение

Galfimbul

avatar Galfimbul




Охотники на троллей / Trollhunters
1 сезон, 1-6 серии

Год выхода: 2016
Страна: США, Netflix
Жанр: мультфильм, фэнтези, комедия, приключения
Продолжительность: 00:22:18
Озвучание: профессиональное многоголосое закадровое (AlexFilm)
Режиссёры: Родриго Блаас, Грег Тирнан
Сценарий: Марк Хеймс, Том Вилер, Гильермо дель Торо
Описание: В руки пятнадцатилетнему юноше попадает Магический Амулет, который даёт ему звание охотника на троллей, призванного защищать троллей, живущих под землёй — под человеческим городом Аркадия. «Охотники на троллей» - мультсериал в жанре комедии и фэнтези, вышедший в 2016 году. Он расскажет о легендарной битве, участниками которой станут люди и тролли.
Релиз:

Перевод: Константин Кривоногов
Монтаж и сведение звука: Михаил Суслов
Роли озвучивали:
<div style="margin-left: 2em" class="post-ul">
<ol class="post-ul">
Алёна Андронова
Маргарита Корш
Екатерина Муравицкая
Петр Гланц Иващенко
Артём Бахтин
Станислав Черсков
Владимир Курдов
Михаил Суслов
</ol>
</div>
Сэмпл: http://sendfile.su/1296675

Качество: WEBRip
Формат: AVI
Видео: 720x400 (1.80:1), 23.976 fps, XviD ~1400 kbps avg, 0.20 bit/pixel
Аудио Rus: 48 kHz, MPEG Layer 3, 2 ch, ~128.00 kbps avg
Аудио Eng: 48 kHz, MPEG Layer 3, 2 ch, ~128.00 kbps avg
Субтитры: нет
Формат : AVI
Формат/Информация : Audio Video Interleave
Размер файла : 267 Мбайт
Продолжительность : 22 м. 18 с.
Общий поток : 1673 Кбит/сек
Название фильма : Trollhunters 1x01 @ AlexFilm
Программа кодирования : VirtualDubMod 1.5.10.2 (build 2540/release)
Библиотека кодирования : VirtualDubMod build 2540/release

Видео
Идентификатор : 0
Формат : MPEG-4 Visual
Профиль формата : Advanced Simple@L5
Параметр BVOP формата : Нет
Параметр QPel формата : Нет
Параметр GMC формата : Без точки перехода
Параметр матрицы формата : Default (MPEG)
Идентификатор кодека : XVID
Идентификатор кодека/Подсказка : XviD
Продолжительность : 22 м. 18 с.
Битрейт : 1403 Кбит/сек
Ширина : 720 пикселей
Высота : 400 пикселей
Соотношение сторон : 16:9
Частота кадров : 23,976 (23976/1000) кадра/сек
Цветовое пространство : YUV
Субдискретизация насыщенности : 4:2:0
Битовая глубина : 8 бит
Тип развёртки : Прогрессивная
Метод сжатия : С потерями
Бит/(Пиксели*Кадры) : 0.203
Размер потока : 224 Мбайт (84%)
Библиотека кодирования : XviD 73

Аудио #1
Идентификатор : 1
Формат : MPEG Audio
Версия формата : Version 1
Профиль формата : Layer 3
Режим : Joint stereo
Расширение режима : MS Stereo
Идентификатор кодека : 55
Идентификатор кодека/Подсказка : MP3
Продолжительность : 22 м. 18 с.
Вид битрейта : Постоянный
Битрейт : 128 Кбит/сек
Каналы : 2 канала
Частота : 48,0 КГц
Метод сжатия : С потерями
Размер потока : 20,4 Мбайт (8%)
Выравнивание : Соединение по промежуткам
Продолжительность промежутка : 42 мс. (1,00 видеокадр)
Время предзагрузки промежутка : 504 мс.
Заголовок : Russian (AlexFilm)
Библиотека кодирования : LAME3.99r
Настройки программы : -m j -V 4 -q 3 -lowpass 18 -b 128

Аудио #2
Идентификатор : 2
Формат : MPEG Audio
Версия формата : Version 1
Профиль формата : Layer 3
Режим : Joint stereo
Расширение режима : MS Stereo
Идентификатор кодека : 55
Идентификатор кодека/Подсказка : MP3
Продолжительность : 22 м. 18 с.
Вид битрейта : Постоянный
Битрейт : 128 Кбит/сек
Каналы : 2 канала
Частота : 48,0 КГц
Метод сжатия : С потерями
Размер потока : 20,4 Мбайт (8%)
Выравнивание : Соединение по промежуткам
Продолжительность промежутка : 42 мс. (1,00 видеокадр)
Время предзагрузки промежутка : 504 мс.
Заголовок : English
Библиотека кодирования : LAME3.90.3
Внимание! Раздача ведётся путём добавления новых серий; при каждом добавлении создаётся новый торрент. Чтобы начать докачку новой серии, пользователям необходимо сделать следующее:
(1) остановить скачивание,
(2) удалить старый торрент у себя из клиента (старые серии удалять не надо),
(3) скачать новый торрент и запустить его у себя в клиенте вместо старого, при этом указать клиенту путь в старую папку куда и должно происходить скачивание новых серий.
Ваш клиент при этом должен произвести хеширование (проверку) старой папки (если не производит сам - помогите ему сделать это), и будет докачивать только те серии которых у вас ещё нет. Старые серии при этом не удаляются, а продолжают раздаваться!
Eсли вы уже удалили старые серии, то предотвратить повторную закачку старых серий можно, отжав галочку в соответствующих местах при запуске нового торрента. По возможности, желательно не удалять старые серии как можно дольше чтобы релизёр не столько продолжал раздавать старые серии, а смог сконцентрироваться на новых.

<a href="tracker.php?f=921&nm=Trollhunters" class="postLink">Ссылка на предыдущие и альтернативные раздачи</a>


Трекер:  [ 12-Янв-2017 06:30 ]

  

Скачать .torrent

Размер .torrent файла 17 KB


Размер: 1.59 GB
Хэш (hash) релиза: 6ba966463f1603100349840e2c2c682ac0e55a16
Подписка на обновления:

Торренты, похожие на Охотники на троллей Trollhunters скачать торрент

Форум Название Автор Размер S L Добавлен
Мультсериалы ·· Охотники на троллей / Trollhunters / Сезон: 1 / Серии: 1-6 (26) (Родриго Блаас, Грег Тирнан) [2016, США, мультфильм, фэнтези, комедия, приключения, WEBRip 720] MVO (AlexFilm) Galfimbul 33565210053.13 GB 0 0 1484193645

07:00

12-Янв-17

Еще никто не оставлял запись к записи скачать торрент Охотники на троллей Trollhunters . Будь первым!

!Обратная связь