Скачать через торрент В Поисках Дон Кихота. 1-7 серии Фильм бесплатно в хорошем качестве torrent

Скачивайте на UnionPeer.org фильмы через торрент без регистрации. Новинки кино в хорошем качестве через торрент. На UnionPeer.org можно скачать через торрент фильмы 2014 и 2015 годов. Самые новые фильмы.

Скачать торрент В Поисках Дон Кихота. 1-7 серии бесплатно через .torrent фильм мультфильм сериал

Статистика раздачи
Размер:  23.88 GB   |    Зарегистрирован:  8 дней   |    .torrent скачан:  15 раз   |   
Раздают:  1  
   
Загрузка...
 
Автор Сообщение

Galfimbul

avatar Galfimbul


<span class="post-font-serif1">В Поисках Дон Кихота</span> Год выпуска: 2017
Страна: Россия
Студия: Первый Канал HD | ООО "Эс Эф Продакшн"
Жанр: Путешествия, документальный
Продолжительность: ~00:48:00
Перевод: Не требуется
Режиссер: Валерий Спирин

Описание: Владимир Познер о новом проекте: "Это седьмая наша попытка рассказать о стране. Испания - одна из самых интересных стран Европы - с очень сложной историей, с выдающимися художниками и чем-то очень близкая, как это ни странно, России. Испания очень долго была под игом мавров, Россия - под игом монголо-татар. О России часто говорили, что это не совсем Европа. Об Испании говорили, что Европа заканчивается у Пиренеев. То есть вроде бы и Испания не совсем Европа. Много схожего. Ну и еще, конечно, Испания - страна романтически таинственная с этим боем быков, с этими цыганскими танцами и напевами, с Кармен (хотя ее написал француз, но тем не менее). В общем, страна очень привлекательная вообще и для кино - особенно."

<a href="viewtopic.php?t=5336681" class="postLink"> </a>
<a href="viewtopic.php?t=5336531" class="postLink"> </a>

Тип релиза: HDTV 1080i
Контейнер: TS

Видео: AVC at 10,0 Мбит/сек Aspect : 1920 x 1080 (1.778) at 25.000 fps
Аудио: AC-3 at 384 Кбит/сек Infos : 6 каналов, 48,0 КГц
Аудио 2: MPEG Audio at 192 Кбит/сек Infos : 2 канала, 48,0 КГц
ОбщееИдентификатор : 1 (0x1)Полное имя : E:\MPEG\В поисках Дон Кихота.2017.HDTV 1080i.Doc66\01. Что есть испанское.tsФормат : MPEG-TSРазмер файла : 3,68 ГбайтПродолжительность : 47 м.Режим общего битрейта : ПеременныйОбщий поток : 11,2 Мбит/сек

ВидеоИдентификатор : 205 (0xCD)Идентификатор меню : 20105 (0x4E89)Формат : AVCФормат/Информация : Advanced Video CodecПрофиль формата : High@L4Параметр CABAC формата : ДаПараметр ReFrames формата : 4 кадраИдентификатор кодека : 27Продолжительность : 47 м.Битрейт : 10,0 Мбит/секШирина : 1920 пикселейВысота : 1080 пикселейСоотношение сторон : 16:9Частота кадров : 25,000 кадров/секЦветовое пространство : YUVСубдискретизация насыщенности : 4:2:0Битовая глубина : 8 битТип развёртки : ЧересстрочнаяПорядок развёртки : Верхнее поле первоеБит/(Пиксели*Кадры) : 0.194Размер потока : 3,31 Гбайт (90%)Цветовой диапазон : LimitedОсновные цвета : BT.709Характеристики трансфера : BT.709Коэффициенты матрицы : BT.709

Аудио #1Идентификатор : 305 (0x131)Идентификатор меню : 20105 (0x4E89)Формат : AC-3Формат/Информация : Audio Coding 3Расширение режима : CM (complete main)Параметр Endianness формата : BigИдентификатор кодека : 6Продолжительность : 47 м.Вид битрейта : ПостоянныйБитрейт : 384 Кбит/секКаналы : 6 каналовРасположение каналов : Front: L C R, Side: L R, LFEЧастота : 48,0 КГцМетод сжатия : С потерямиРазмер потока : 130 Мбайт (3%)Язык : Russian

Аудио #2Идентификатор : 306 (0x132)Идентификатор меню : 20105 (0x4E89)Формат : MPEG AudioВерсия формата : Version 1Профиль формата : Layer 2Идентификатор кодека : 3Продолжительность : 47 м.Вид битрейта : ПостоянныйБитрейт : 192 Кбит/секКаналы : 2 каналаЧастота : 48,0 КГцМетод сжатия : С потерямиРазмер потока : 64,8 Мбайт (2%)Язык : Russian

Текст #1Идентификатор : 307 (0x133)-100Идентификатор меню : 20105 (0x4E89)Формат : TeletextЯзык : Russian

Текст #2Идентификатор : 307 (0x133)-888Идентификатор меню : 20105 (0x4E89)Формат : Teletext SubtitleЯзык : RussianЯзык, дополнительно : For hearing impaired people

МенюИдентификатор : 105 (0x69)Идентификатор меню : 20105 (0x4E89)Продолжительность : 47 м.Список : 205 (0xCD) (AVC) / 305 (0x131) (AC-3, Russian) / 306 (0x132) (MPEG Audio, Russian) / 307 (0x133) ()Язык : / Russian / Russian
Внимание! Раздача ведётся путём добавления новых серий; при каждом добавлении создаётся новый торрент. Чтобы начать докачку новой серии, пользователям необходимо сделать следующее:
(1) остановить скачивание,
(2) удалить старый торрент у себя из клиента (старые серии удалять не надо),
(3) скачать новый торрент и запустить его у себя в клиенте вместо старого, при этом указать клиенту путь в старую папку куда и должно происходить скачивание новых серий.
Ваш клиент при этом должен произвести хеширование (проверку) старой папки (если не производит сам - помогите ему сделать это), и будет докачивать только те серии которых у вас ещё нет. Старые серии при этом не удаляются, а продолжают раздаваться!
Eсли вы уже удалили старые серии, то предотвратить повторную закачку старых серий можно, сняв галочку в соответствующих местах при запуске нового торрента. По возможности, желательно не удалять старые серии как можно дольше чтобы релизёр не столько продолжал раздавать старые серии, а смог сконцентрироваться на новых.
12.01. Добавлена 7-я серия. Перепроверяемся!

Трекер:  [ 12-Янв-2017 08:00 ]

  

Скачать .torrent

Размер .torrent файла 120 KB


Размер: 23.88 GB
Хэш (hash) релиза: 9f9284d218552f39b150e7168e69374bc261ff93
Подписка на обновления:

Торренты, похожие на В Поисках Дон Кихота. 1-7 серии скачать торрент

Форум Название Автор Размер S L Добавлен
Документальные фильмы и телепередачи ·· В Поисках Дон Кихота: Проект Владимира Познера и Ивана Урганта / Серии: 1-7 (из 8) (Валерий Спирин) [2017, Документальный, HDTVRip 720p] Galfimbul 105598606619.83 GB 0 0 1484226046

16:00

12-Янв-17

Еще никто не оставлял запись к записи скачать торрент В Поисках Дон Кихота. 1-7 серии . Будь первым!

!Обратная связь