Скачать через торрент Неоконченный урок Фильм бесплатно в хорошем качестве torrent

Скачивайте на UnionPeer.org фильмы через торрент без регистрации. Новинки кино в хорошем качестве через торрент. На UnionPeer.org можно скачать через торрент фильмы 2014 и 2015 годов. Самые новые фильмы.

Скачать торрент Неоконченный урок бесплатно через .torrent фильм мультфильм сериал

Статистика раздачи
Размер:  2.18 GB   |    Зарегистрирован:  8 дней   |    .torrent скачан:  21 раз   |   
Раздают:  1  
   
Загрузка...
 
Автор Сообщение

Galfimbul

avatar Galfimbul


<span class="post-font-serif1">Неоконченный урок
</span>
Жанр: мелодрама
Год выпуска: 1980
Продолжительность: 01:03:16 + 01:03:15

Режиссёр: Анатолий Тютюнник

В ролях: Валерий Никифоров, Альбина Матвеева, Галина Польских, Ирина Юревич, Сергей Быстрицкий, Юрий Богомолов, Татьяна Никитина, Тамара Логинова, Геннадий Коротков, Валентина Ивашева ...

Описание: Телефильм по мотивам повести Н.Зелеренского "Когда мы взрослеем". Молодой учитель физкультуры не только увлекает учеников своим предметом, но и является для них примером высокой нравственности и принципиальности.

Доп. информация: Рип сделан из этого <a href="viewtopic.php?t=4820842" class="postLink">DVB</a>



<span class="post-font-serif1">Неоконченный урок_(1980)_DVBRip_Sample_.avi</span>

Качество видео: SATRip
Формат видео: AVI

Видео: 704x528 (1.33:1), 25 fps, XviD build 67 ~2263 kbps avg, 0.24 bit/pixel
Аудио: 48 kHz, AC3 Dolby Digital, 2/0 (L,R) ch, ~192 kbps
File: Неоконченный урок_(1980)_DVBRip_Часть - 1_.avi
Title: Неоконченный урок (1980)
Author: Анатолий Тютюнник
Copyleft: Ripped_by_rjhlb777
Genre: мелодрама
Category: TV Movie
Comment: Original Rus
FileSize: 1115.53 Mb ( 1 169 715 200 bytes )
Play length: 01:03:16.159 (94904 frames)
Subtitles: Not Present
Video: 704x528 (1.33:1), 25 fps, XviD build 67 ~2263 kbps avg, 0.24 bit/pixel
Audio: 48 kHz, AC3 Dolby Digital, 2/0 (L,R) ch, ~192 kbps

File: Неоконченный урок_(1980)_DVBRip_Часть - 2_.avi
Title: Неоконченный урок (1980)
Author: Анатолий Тютюнник
Copyleft: Ripped_by_rjhlb777
Genre: мелодрама
Category: TV Movie
Comment: Original Rus
FileSize: 1115.36 Mb ( 1 169 541 120 bytes )
Play length: 01:03:15.280 (94882 frames)
Subtitles: Not Present
Video: 704x528 (1.33:1), 25 fps, XviD build 67 ~2263 kbps avg, 0.24 bit/pixel
Audio: 48 kHz, AC3 Dolby Digital, 2/0 (L,R) ch, ~192 kbps
General
Complete name : I:\111\Неоконченный урок_(1980)_DVBRip_\Неоконченный урок_(1980)_DVBRip_Часть - 1_.avi
Format : AVI
Format/Info : Audio Video Interleave
File size : 1.09 GiB
Duration : 1 h 3 min
Overall bit rate : 2 465 kb/s
Movie name : Неоконченный урок (1980)
Director : Анатолий Тютюнник
Genre : мелодрама
Writing application : VirtualDubMod 1.5.10.3 | www.virtualdub-fr.org || (build 2550/release)
Original source form/Name : TV Movie
Copyright : Ripped_by_rjhlb777
Comment : Original Rus

Video
ID : 0
Format : MPEG-4 Visual
Format profile : Advanced [email protected]
Format settings, BVOP : 1
Format settings, QPel : No
Format settings, GMC : No warppoints
Format settings, Matrix : Custom
Codec ID : XVID
Codec ID/Hint : XviD
Duration : 1 h 3 min
Bit rate : 2 263 kb/s
Width : 704 pixels
Height : 528 pixels
Display aspect ratio : 4:3
Frame rate : 25.000 FPS
Color space : YUV
Chroma subsampling : 4:2:0
Bit depth : 8 bits
Scan type : Progressive
Compression mode : Lossy
Bits/(Pixel*Frame) : 0.244
Stream size : 1.00 GiB (92%)
Writing library : XviD 67

Audio
ID : 1
Format : AC-3
Format/Info : Audio Coding 3
Mode extension : CM (complete main)
Format settings, Endianness : Big
Codec ID : 2000
Duration : 1 h 3 min
Bit rate mode : Constant
Bit rate : 192 kb/s
Channel(s) : 2 channels
Channel positions : Front: L R
Sampling rate : 48.0 kHz
Frame rate : 31.250 FPS (1536 spf)
Bit depth : 16 bits
Compression mode : Lossy
Stream size : 86.9 MiB (8%)
Alignment : Split accross interleaves
Interleave, duration : 40 ms (1.00 video frame)
Interleave, preload duratio : 500 ms

==================================================================
==================================================================

General
Complete name : I:\111\Неоконченный урок_(1980)_DVBRip_\Неоконченный урок_(1980)_DVBRip_Часть - 2_.avi
Format : AVI
Format/Info : Audio Video Interleave
File size : 1.09 GiB
Duration : 1 h 3 min
Overall bit rate : 2 465 kb/s
Movie name : Неоконченный урок (1980)
Director : Анатолий Тютюнник
Genre : мелодрама
Writing application : VirtualDubMod 1.5.10.3 | www.virtualdub-fr.org || (build 2550/release)
Original source form/Name : TV Movie
Copyright : Ripped_by_rjhlb777
Comment : Original Rus

Video
ID : 0
Format : MPEG-4 Visual
Format profile : Advanced [email protected]
Format settings, BVOP : 1
Format settings, QPel : No
Format settings, GMC : No warppoints
Format settings, Matrix : Custom
Codec ID : XVID
Codec ID/Hint : XviD
Duration : 1 h 3 min
Bit rate : 2 264 kb/s
Width : 704 pixels
Height : 528 pixels
Display aspect ratio : 4:3
Frame rate : 25.000 FPS
Color space : YUV
Chroma subsampling : 4:2:0
Bit depth : 8 bits
Scan type : Progressive
Compression mode : Lossy
Bits/(Pixel*Frame) : 0.244
Stream size : 1.00 GiB (92%)
Writing library : XviD 67

Audio
ID : 1
Format : AC-3
Format/Info : Audio Coding 3
Mode extension : CM (complete main)
Format settings, Endianness : Big
Codec ID : 2000
Duration : 1 h 3 min
Bit rate mode : Constant
Bit rate : 192 kb/s
Channel(s) : 2 channels
Channel positions : Front: L R
Sampling rate : 48.0 kHz
Frame rate : 31.250 FPS (1536 spf)
Bit depth : 16 bits
Compression mode : Lossy
Stream size : 86.9 MiB (8%)
Alignment : Split accross interleaves
Interleave, duration : 40 ms (1.00 video frame)
Interleave, preload duratio : 500 ms


Трекер:  [ 12-Янв-2017 10:00 ]

  

Скачать .torrent

Размер .torrent файла 11 KB


Размер: 2.18 GB
Хэш (hash) релиза: 7ac6d8274ab977a01689867f44ed653b4023766e
Подписка на обновления:

Торренты, похожие на Неоконченный урок скачать торрент

Форум Название Автор Размер S L Добавлен
Российские фильмы до 2016 ·· Неоконченный урок (Игорь Хомский) [2009, мелодрама, SATRip] Galfimbul 15617884161.45 GB 0 0 1484154814

20:13

11-Янв-17

Еще никто не оставлял запись к записи скачать торрент Неоконченный урок . Будь первым!

!Обратная связь