Скачать через торрент Ведем наблюдение No Activity Фильм бесплатно в хорошем качестве torrent

Скачивайте на UnionPeer.org фильмы через торрент без регистрации. Новинки кино в хорошем качестве через торрент. На UnionPeer.org можно скачать через торрент фильмы 2014 и 2015 годов. Самые новые фильмы.

Скачать торрент Ведем наблюдение No Activity бесплатно через .torrent фильм мультфильм сериал

Статистика раздачи
Размер:  918 MB   |    Зарегистрирован:  8 дней   |    .torrent скачан:  11 раз   |   
Раздают:  1  
   
Загрузка...
 
Автор Сообщение

Galfimbul

avatar Galfimbul


Ведем наблюдение / No Activity
Добавлена 1-я серия 2-го сезона. 12 января 2016 года в 10:35.

Год выпуска: 2015
Страна: Австралия
Жанр: комедия, криминал
Продолжительность: 00:22:00

Перевод: Субтитры Ron.Studio™

Режиссёр: Трент О’Доннелл

В ролях: Патрик Браммелл, Даррен Гилшенан, Харриет Дайер, Дэвид Филд, Женевьева Моррис, Дэниэл Уилли, Саша Хорлер, Ивен Лесли, Чам Эхелепола, Ким Джинджелл

Описание: Лучшие комики Австралии рассказывают историю о буднях полицейских детективов и криминальных авторитетов.

Ссылка на предыдущие и альтернативные раздачи: <a href="tracker.php?nm=no%20activity" class="postLink">...no%20activity</a>

Сэмпл: http://multi-up.com/1132761

Качество: PDTVRip
Формат: MP4

1-й сезон:
Видео: AVC, 1280х720, 30 fps, 730 kbps, 0.022 bit/pixel
Аудио: AAC, 44.1 kHz, 2 ch, 126 kbps
2-й сезон:
Видео: AVC, 1024х568, 25 fps, 1400 kbps, 0.083 bit/pixel
Аудио: AAC, 48.0 kHz, 2 ch, 163 kbps

Субтитры: Внешние *.srt

Реклама: Отсуствует
Внимание! Раздача ведётся путём добавления новых серий; при каждом добавлении создаётся новый торрент. Чтобы начать докачку новой серии, пользователям необходимо сделать следующее:
(1) остановить скачивание,
(2) удалить старый торрент у себя из клиента (старые серии удалять не надо),
(3) скачать новый торрент и запустить его у себя в клиенте вместо старого, при этом указать клиенту путь в старую папку куда и должно происходить скачивание новых серий.
Ваш клиент при этом должен произвести хеширование (проверку) старой папки (если не производит сам - помогите ему сделать это), и будет докачивать только те серии которых у вас ещё нет. Старые серии при этом не удаляются, а продолжают раздаваться!
Eсли вы уже удалили старые серии, то предотвратить повторную закачку старых серий можно, отжав галочку в соответствующих местах при запуске нового торрента. По возможности, желательно не удалять старые серии как можно дольше чтобы релизёр не столько продолжал раздавать старые серии, а смог сконцентрироваться на новых.
General
Complete name : С:\no.activity.au.s01e01.mp4
Format : MPEG-4
Format profile : Base Media / Version 2
Codec ID : mp42 (isom/mp42)
File size : 117 MiB
Duration : 22 min 22 s
Overall bit rate mode : Variable
Overall bit rate : 730 kb/s
Encoded date : UTC 2015-12-28 03:31:09
Tagged date : UTC 2015-12-28 03:31:09

Video
ID : 1
Format : AVC
Format/Info : Advanced Video Codec
Format profile : [email protected]
Format settings, CABAC : Yes
Format settings, ReFrames : 3 frames
Codec ID : avc1
Codec ID/Info : Advanced Video Coding
Duration : 22 min 22 s
Bit rate : 602 kb/s
Width : 1 280 pixels
Height : 720 pixels
Display aspect ratio : 16:9
Frame rate mode : Constant
Frame rate : 30.000 FPS
Standard : NTSC
Color space : YUV
Chroma subsampling : 4:2:0
Bit depth : 8 bits
Scan type : Progressive
Bits/(Pixel*Frame) : 0.022
Stream size : 96.4 MiB (82%)
Language : English
Encoded date : UTC 2015-12-28 03:31:10
Tagged date : UTC 2015-12-28 03:31:10
Color range : Limited

Audio
ID : 2
Format : AAC
Format/Info : Advanced Audio Codec
Format profile : LC
Codec ID : 40
Duration : 22 min 22 s
Source duration : 22 min 22 s
Bit rate mode : Variable
Bit rate : 126 kb/s
Maximum bit rate : 158 kb/s
Channel(s) : 2 channels
Channel positions : Front: L R
Sampling rate : 44.1 kHz
Frame rate : 43.066 FPS (1024 spf)
Compression mode : Lossy
Stream size : 20.1 MiB (17%)
Source stream size : 20.1 MiB (17%)
Language : English
Encoded date : UTC 2015-12-28 03:31:10
Tagged date : UTC 2015-12-28 03:31:10
General
Complete name : C:\no.activity.au.s02e01.mp4
Format : MPEG-4
Format profile : Base Media
Codec ID : isom (isom)
File size : 225 MiB
Duration : 23 min 0 s
Overall bit rate mode : Variable
Overall bit rate : 1 368 kb/s
Encoded date : UTC 2017-01-09 11:07:09
Tagged date : UTC 2017-01-09 11:07:09

Video
ID : 1
Format : AVC
Format/Info : Advanced Video Codec
Format profile : [email protected]
Format settings, CABAC : Yes
Format settings, ReFrames : 1 frame
Codec ID : avc1
Codec ID/Info : Advanced Video Coding
Duration : 23 min 0 s
Bit rate : 1 200 kb/s
Width : 1 024 pixels
Height : 568 pixels
Display aspect ratio : 16:9
Frame rate mode : Constant
Frame rate : 25.000 FPS
Color space : YUV
Chroma subsampling : 4:2:0
Bit depth : 8 bits
Scan type : Progressive
Bits/(Pixel*Frame) : 0.083
Stream size : 197 MiB (88%)
Writing library : x264 core 129
Encoding settings : cabac=1 / ref=1 / deblock=1:0:0 / analyse=0x1:0x131 / me=dia / subme=2 / psy=1 / psy_rd=1.00:0.00 / mixed_ref=0 / me_range=16 / chroma_me=1 / trellis=0 / 8x8dct=0 / cqm=0 / deadzone=21,11 / fast_pskip=1 / chroma_qp_offset=0 / threads=8 / lookahead_threads=1 / sliced_threads=0 / nr=0 / decimate=1 / interlaced=0 / bluray_compat=0 / constrained_intra=0 / bframes=0 / weightp=2 / keyint=250 / keyint_min=25 / scenecut=40 / intra_refresh=0 / rc_lookahead=40 / rc=abr / mbtree=1 / bitrate=1200 / ratetol=1.0 / qcomp=0.60 / qpmin=10 / qpmax=51 / qpstep=4 / ip_ratio=1.41 / aq=1:1.00
Encoded date : UTC 2016-12-14 00:53:43
Tagged date : UTC 2017-01-09 11:07:18

Audio
ID : 2
Format : AAC
Format/Info : Advanced Audio Codec
Format profile : LC
Codec ID : 40
Duration : 23 min 0 s
Duration_FirstFrame : 64 ms
Bit rate mode : Variable
Bit rate : 165 kb/s
Nominal bit rate : 153 kb/s
Maximum bit rate : 192 kb/s
Channel(s) : 2 channels
Channel positions : Front: L R
Sampling rate : 48.0 kHz
Frame rate : 46.875 FPS (1024 spf)
Compression mode : Lossy
Stream size : 27.2 MiB (12%)
Default : Yes
Alternate group : 1
Encoded date : UTC 2016-12-14 00:53:43
Tagged date : UTC 2017-01-09 11:07:18
<a href="http://fastpic.ru/view/88/2016/1226/_bc6b73d6a09bee...f.png.html" target="_blank"><img src=" " border="0"></a>
<a href="http://fastpic.ru/view/88/2016/1226/_98abb420f85d6a...3.png.html" target="_blank"><img src=" " border="0"></a>
<a href="http://fastpic.ru/view/88/2016/1226/_9adc8741350f9c...2.png.html" target="_blank"><img src=" " border="0"></a>
<a href="http://fastpic.ru/view/88/2016/1226/_a3797de09090d1...c.png.html" target="_blank"><img src=" " border="0"></a>
<a href="http://fastpic.ru/view/88/2016/1226/_1bafe258a8e3b3...c.png.html" target="_blank"><img src=" " border="0"></a>
<a href="http://fastpic.ru/view/88/2016/1226/_34646729e5b065...9.png.html" target="_blank"><img src=" " border="0"></a>


Трекер:  [ 12-Янв-2017 10:30 ]

  

Скачать .torrent

Размер .torrent файла 19 KB


Размер: 918 MB
Хэш (hash) релиза: cfe474c1da33cccec671bc5b5d7a3cde9628dcee
Подписка на обновления:

Торренты, похожие на Ведем наблюдение No Activity скачать торрент

Форум Название Автор Размер S L Добавлен
Зарубежные сериалы ·· Ведем наблюдение / No Activity / Сезон: 1,2 / Серии: 1-6 из 6 / 0 из 6 (Трент О’Доннелл) [2015, Австралия, комедия, криминал, PDTVRip] Original + Rus Sub (Ron.Studio™) Galfimbul 726368916693 MB 0 0 1483971640

17:20

9-Янв-17

Зарубежные сериалы ·· Ведем наблюдение / No Activity / Сезон: 1,2 / Серии: 1-6 из 6 / 0 из 6 (Трент О’Доннелл) [2015, Австралия, комедия, криминал, PDTVRip] Original + Rus Sub (Ron.Studio™) Galfimbul 726368912693 MB 0 0 1483967915

16:18

9-Янв-17

Зарубежные сериалы ·· Ведем наблюдение / No Activity / Сезон: 1,2 / Серии: 1-6 из 6 / 1-2 из 6 (Трент О’Доннелл) [2015, Австралия, комедия, криминал, PDTVRip] Original + Rus Sub (Ron.Studio™) Galfimbul 11955081371.11 GB 0 0 1484386107

12:28

14-Янв-17

Зарубежные сериалы ·· Ведем наблюдение / No Activity / Сезон: 1,2 / Серии: 1-2 из 6 / 0 из 6 (Трент О’Доннелл) [2015, Австралия, комедия, криминал, PDTVRip] Original + Rus Sub (Ron.Studio™)l Galfimbul 245160389234 MB 0 0 1483093389

13:23

30-Дек-16

Зарубежные сериалы ·· Ведем наблюдение / No Activity / Сезон: 1,2 / Серии: 1-5 из 6 / 0 из 6 (Трент О’Доннелл) [2015, Австралия, комедия, криминал, PDTVRip] Original + Rus Sub (Ron.Studio™) Galfimbul 605207865577 MB 0 0 1483876148

14:49

8-Янв-17

Зарубежные сериалы ·· Ведем наблюдение / No Activity / Сезон: 1,2 / Серии: 1-4 из 6 / 0 из 6 (Трент О’Доннелл) [2015, Австралия, комедия, криминал, PDTVRip] Original + Rus Sub (Ron.Studio™) Galfimbul 479668216457 MB 0 0 1483800673

17:51

7-Янв-17

Зарубежные сериалы ·· Ведем наблюдение / No Activity / Сезон: 1,2 / Серии: 1-3 из 6 / 0 из 6 (Трент О’Доннелл) [2015, Австралия, комедия, криминал, PDTVRip] Original + Rus Sub (Ron.Studio™) Galfimbul 373244756356 MB 0 0 1483269886

14:24

1-Янв-17

Зарубежные сериалы ·· Ведем наблюдение / No Activity / Сезон: 1,2 / Серии: 1 из 6 / 0 из 6 (Трент О’Доннелл) [2015, Австралия, комедия, криминал, PDTVRip] Original + Rus Sub (Ron.Studio™)l Galfimbul 122633223117 MB 0 0 1482763724

17:48

26-Дек-16

Еще никто не оставлял запись к записи скачать торрент Ведем наблюдение No Activity . Будь первым!

!Обратная связь