Скачать через торрент музыку Maxi Priest - Believe In Love - 2005, FLAC бесплатно без регистрации torrent

Статистика раздачи
Размер:  98 MB   |    Зарегистрирован:  3 года 3 месяца   |    .torrent скачан:  89 раз   |   
Раздают:  1  
   
Загрузка...
 
Автор Сообщение

Polarnik

avatar Polarnik


Maxi Priest / Believe In Love (Maxi-Single)

Жанр: Raggae
Страна-производитель диска: UK
Год издания: 2005
Издатель (лейбл): Relentless Records, Virgin, Emi
Аудиокодек: FLAC (*.flac)
Тип рипа: tracks+.cue
Битрейт аудио: lossless
Продолжительность: 00:13:23
Источник (релизер): what.cd (57snail)
Наличие сканов в содержимом раздачи: да
Треклист:
1.Believe In Love (New Radio Mix)
2.Believe In Love (Album Version)
3.Believe In Love (Salaam Remi Remix)Featuring – Spragga Benz
4.Believe In Love (Beat Queen Reggaeton Mix)

А это клип на песню http://www.youtube.com/watch?v=vyGxcHCuoek
Exact Audio Copy V1.0 beta 3 from 29. August 2011

EAC extraction logfile from 26. March 2013, 18:26

Maxi Priest / Believe In Love

Used drive : TSSTcorpDVDWBD SH-B123L Adapter: 3 ID: 0

Read mode : SecureUtilize accurate stream : YesDefeat audio cache : YesMake use of C2 pointers : No

Read offset correction : 6Overread into Lead-In and Lead-Out : NoFill up missing offset samples with silence : YesDelete leading and trailing silent blocks : NoNull samples used in CRC calculations : YesUsed interface : Native Win32 interface for Win NT & 2000Gap handling : Appended to previous track

Used output format : User Defined EncoderSelected bitrate : 1024 kBit/sQuality : HighAdd ID3 tag : NoCommand line compressor : C:\Program Files (x86)\Exact Audio Copy\Flac\flac.exeAdditional command line options : -8 -V -T "ARTIST=%artist%" -T "TITLE=%title%" -T "ALBUM=%albumtitle%" -T "DATE=%year%" -T "TRACKNUMBER=%tracknr%" -T "GENRE=%genre%" -T "PERFORMER=%albuminterpret%" -T "COMPOSER=%composer%" %haslyrics%--tag-from-file=LYRICS="%lyricsfile%"%haslyrics% -T "ALBUMARTIST=%albumartist%" -T "DISCNUMBER=%cdnumber%" -T "TOTALDISCS=%totalcds%" -T "TOTALTRACKS=%numtracks%" -T "COMMENT=%comment%" %source% -o %dest%

TOC of the extracted CD

Track | Start | Length | Start sector | End sector --------------------------------------------------------- 1 | 0:00.00 | 3:04.15 | 0 | 13814 2 | 3:04.15 | 3:19.50 | 13815 | 28789 3 | 6:23.65 | 3:34.38 | 28790 | 44877 4 | 9:58.28 | 3:25.02 | 44878 | 60254

Track 1

Filename C:\EAC Rips\Maxi Priest - Believe In Love\01 - New Radio Mix.wav

Pre-gap length 0:00:02.00

Peak level 99.9 % Extraction speed 2.0 X Track quality 100.0 % Test CRC A470E4DD Copy CRC A470E4DD Track not present in AccurateRip database Copy OK

Track 2

Filename C:\EAC Rips\Maxi Priest - Believe In Love\02 - Album Version.wav

Pre-gap length 0:00:02.00

Peak level 87.9 % Extraction speed 2.1 X Track quality 100.0 % Test CRC 1D73E2EF Copy CRC 1D73E2EF Track not present in AccurateRip database Copy OK

Track 3

Filename C:\EAC Rips\Maxi Priest - Believe In Love\03 - Salaam Remi Remix Feat. Spragga Benz.wav

Pre-gap length 0:00:02.00

Peak level 93.4 % Extraction speed 2.3 X Track quality 100.0 % Test CRC 85703FBA Copy CRC 85703FBA Track not present in AccurateRip database Copy OK

Track 4

Filename C:\EAC Rips\Maxi Priest - Believe In Love\04 - Beat Queen Reggaeton Mix.wav

Pre-gap length 0:00:02.00

Peak level 100.0 % Extraction speed 2.4 X Track quality 100.0 % Test CRC C25277F3 Copy CRC C25277F3 Track not present in AccurateRip database Copy OK

None of the tracks are present in the AccurateRip database

No errors occurred

End of status report

==== Log checksum 258A870A46C08004C503CCB1CE307182991C2AB4BFE8DF2689D66FB7C054F2FA ====
REM DATE 2005REM DISCID 27032304REM COMMENT "ExactAudioCopy v1.0b3"CATALOG 0724386656926PERFORMER "Maxi Priest"TITLE "Believe In Love"FILE "01 - New Radio Mix.wav" WAVE TRACK 01 AUDIO TITLE "New Radio Mix" PERFORMER "Maxi Priest" ISRC GBGLM0400125 INDEX 01 00:00:00 TRACK 02 AUDIO TITLE "Album Version" PERFORMER "Maxi Priest" ISRC GBGLM0400024 INDEX 00 03:02:15FILE "02 - Album Version.wav" WAVE INDEX 01 00:00:00 TRACK 03 AUDIO TITLE "Salaam Remi Remix Feat. Spragga Benz" PERFORMER "Maxi Priest" ISRC GBGLM0400123 INDEX 00 03:17:50FILE "03 - Salaam Remi Remix Feat. Spragga Benz.wav" WAVE INDEX 01 00:00:00 TRACK 04 AUDIO TITLE "Beat Queen Reggaeton Mix" PERFORMER "Maxi Priest" ISRC GBGLM0400124 INDEX 00 03:32:38FILE "04 - Beat Queen Reggaeton Mix.wav" WAVE INDEX 01 00:00:00
Started at: среда, 25. 09. 2013. - 2:35.264 files found

1 -===- E:\Upload Torrents\Maxi Priest - Believe In Love\01 - New Radio Mix.flac Extracted successfully Conclusion: this track is CDDA with probability 99% Tempfile successfully deleted.

2 -===- E:\Upload Torrents\Maxi Priest - Believe In Love\02 - Album Version.flac Extracted successfully Conclusion: this track is CDDA with probability 100% Tempfile successfully deleted.

3 -===- E:\Upload Torrents\Maxi Priest - Believe In Love\03 - Salaam Remi Remix Feat. Spragga Benz.flac Extracted successfully Conclusion: this track is CDDA with probability 100% Tempfile successfully deleted.

4 -===- E:\Upload Torrents\Maxi Priest - Believe In Love\04 - Beat Queen Reggaeton Mix.flac Extracted successfully Conclusion: this track is CDDA with probability 100% Tempfile successfully deleted.

Finished at: среда, 25. 09. 2013. - 2:36.23 (operation time: 0:00.56)


Трекер:  [ 25-Сен-2013 07:45 ]

  

Скачать .torrent

Размер .torrent файла 16 KB


Размер: 98 MB
Хэш (hash) релиза: f2adc46432ff6e637d73af03294390774640eedd

Еще никто не оставлял запись к записи скачать торрент Maxi Priest - Believe In Love - 2005, FLAC . Будь первым!

!Обратная связь