Скачать через торрент музыку Neil H - Secrets of Faeries - 2003, FLAC бесплатно без регистрации torrent

Статистика раздачи
Размер:  347 MB   |    Зарегистрирован:  3 года   |    .torrent скачан:  249 раз   |   
Раздают:  1  
   
Загрузка...
 
Автор Сообщение

Galfimbul

avatar Galfimbul


Neil H - Secrets of Faeries

Жанр: New Age
Год издания: 2003
Аудиокодек: FLAC (*.flac)
Тип рипа: image+.cue
Битрейт аудио: lossless
Продолжительность: 01:13:18
Источник (релизер): СЛИМ (Сообщество любителей инструментальной музыки)
Наличие сканов в содержимом раздачи: нет
Треклист:
01. Secret Garden
02. Wedding Song
03. Moonpath
04. Heartsong
05. My Faeries Love
06. Jacsong
07. The Parting
08. Dawnsong
09. The Remembering
Exact Audio Copy V1.0 beta 3 from 29. August 2011

Отчёт EAC об извлечении, выполненном 4. января 2014, 11:14

Neil H / Secrets of Faeries

Дисковод: Optiarc DVD RW AD-7191S Adapter: 1 ID: 0

Режим чтения : ДостоверностьИспользование точного потока : ДаОтключение кэша аудио : ДаИспользование указателей C2 : Нет

Коррекция смещения при чтении : 6Способность читать области Lead-in и Lead-out : НетЗаполнение пропущенных сэмплов тишиной : ДаУдаление блоков с тишиной в начале и конце : НетПри вычислениях CRC использовались нулевые сэмплы : ДаИнтерфейс : Встроенный Win32-интерфейс для Win NT/2000

Выходной формат : Пользовательский кодировщикВыбранный битрейт : 128 kBit/sКачество : ВысокийДобавление ID3-тега : НетУтилита сжатия : C:\Program Files (x86)\Exact Audio Copy\FLAC\FLAC.EXEДополнительные параметры : -V -8 -T "Date=%year%" -T "Genre=%genre%" %source%

TOC извлечённого CD

Трек | Старт | Длительность | Начальный сектор | Конечный сектор --------------------------------------------------------------------- 1 | 0:00.00 | 9:01.68 | 0 | 40642 2 | 9:01.68 | 7:11.03 | 40643 | 72970 3 | 16:12.71 | 10:03.00 | 72971 | 118195 4 | 26:15.71 | 9:35.00 | 118196 | 161320 5 | 35:50.71 | 7:29.00 | 161321 | 194995 6 | 43:19.71 | 6:19.00 | 194996 | 223420 7 | 49:38.71 | 10:29.00 | 223421 | 270595 8 | 60:07.71 | 4:20.00 | 270596 | 290095 9 | 64:27.71 | 8:50.74 | 290096 | 329919

Характеристики диапазона извлечения и сообщения об ошибках

Выбранный диапазон

Имя файла H:\Music\New Age\Neil H\2003 - Secrets Of Faeries (FLAC)\Neil H - Secrets of Faeries.wav

Пиковый уровень 92.1 % Скорость извлечения 8.0 X Качество диапазона 100.0 % CRC теста CB2589F8 CRC копии CB2589F8 Копирование... OK

Ошибок не произошло

Конец отчёта

==== Контрольная сумма отчёта 05B635AC552F7F610A44D73C9B4321404BD3D847C3AF641FEC2C0CB56BA04707 ====
REM GENRE "New Age"REM DATE 2003REM DISCID 88112E09REM COMMENT "ExactAudioCopy v1.0b3"PERFORMER "Neil H"TITLE "Secrets of Faeries"FILE "Neil H - Secrets of Faeries.flac" WAVE TRACK 01 AUDIO TITLE "Secret Garden" PERFORMER "Neil H" FLAGS DCP INDEX 01 00:00:00 TRACK 02 AUDIO TITLE "Wedding Song" PERFORMER "Neil H" FLAGS DCP INDEX 01 09:01:68 TRACK 03 AUDIO TITLE "Moonpath" PERFORMER "Neil H" FLAGS DCP INDEX 01 16:12:71 TRACK 04 AUDIO TITLE "Heartsong" PERFORMER "Neil H" FLAGS DCP INDEX 01 26:15:71 TRACK 05 AUDIO TITLE "My Faeries Love" PERFORMER "Neil H" FLAGS DCP INDEX 01 35:50:71 TRACK 06 AUDIO TITLE "Jacsong" PERFORMER "Neil H" FLAGS DCP INDEX 01 43:19:71 TRACK 07 AUDIO TITLE "The Parting" PERFORMER "Neil H" FLAGS DCP INDEX 01 49:38:71 TRACK 08 AUDIO TITLE "Dawnsong" PERFORMER "Neil H" FLAGS DCP INDEX 01 60:07:71 TRACK 09 AUDIO TITLE "The Remembering" PERFORMER "Neil H" FLAGS DCP INDEX 01 64:27:71
Фейри, лесной народец или же просто эльфы - мудрые и добрые обитатели леса, чей образ остался неизменным с давних пор. Особенно это заметно на родине этих сказочных существ, в Англии, где истории о них самым тесным образом связаны как с историей древних кельтов, так и с викторианской эпохой, когда изящные девы, прячущиеся меж крон деревьев, стали одним из воплощений этого периода истории, вызывая небывалый интерес. Не забыты фейри и в наши дни – авторы с удовольствием помещают эльфов в привычный ореол обитания, окружая их лунной магией и энергией мест силы, щедро разбросанных по Британии. В эпоху развития музыки нью-эйдж одним из апологетов увлечения лесными духами был композитор-пианист Майк Роуланд, именно его альбомы послужили основой целому течению в жанре «релаксационной музыки», и именно его дело продолжает Нейл Эйч, создав композиции для своего диска «Secrets of the Fairies».

В музыке Нейла легенды об эльфах занимают важную роль, о них повествует тихое пение флейты и прочие атмосферные атрибуты «кельтики», но эти истории служат для композитора не ориентиром, а символом. Символом, прежде всего, любви и верности – вот откуда на диске появляется нежное посвящение супруге «Jacqsong» и написанная специально для бракосочетания друзей композиция «The Wedding Song», превосходный образчик того, что перед нами – настоящий композитор-романтик, умеющий ясно изложить суть таких сложных и важных понятий, как «любовь» и «близость».

Необычная музыка. Медленная, тихая и спокойная... Плавно перетекающие мелодии без ярко выраженного ритма расслабляют тело и погружают сознание в полудрёму с видениями волшебного мира фей...

Идеальный альбом для тех, кто ищет покоя и тишины, но не хочет предаваться этим радостям в одиночестве.


Трекер:  [ 06-Янв-2014 13:58 ]

  

Скачать .torrent

Размер .torrent файла 14 KB


Размер: 347 MB
Хэш (hash) релиза: 5a0838216924a9555b4679b19973c829c5f0cf63

Еще никто не оставлял запись к записи скачать торрент Neil H - Secrets of Faeries - 2003, FLAC . Будь первым!

!Обратная связь