Скачать через торрент музыку VA - Калина красная 1-9, 10 бесплатно без регистрации torrent

Статистика раздачи
Размер:  9.52 GB   |    Зарегистрирован:  3 года   |    .torrent скачан:  437 раз   |   
Раздают:  1  
   
Загрузка...
 
Автор Сообщение

Galfimbul

avatar Galfimbul


Various - Калина красная 1-9, 10 (спецвыпуск) (3CD), Лучшие песни (2CD), 13, 15-21

Жанр: Шансон
Страна-производитель диска: Россия, Швеция
Год издания диска: 1997-2013
Издатель (лейбл): Союз Продакшн
Аудиокодек: FLAC (*.flac)
Тип рипа: image+.cue
Битрейт аудио: lossless
Наличие сканов в содержимом раздачи: да

Номер по каталогу: SZCD 0856-97
Продолжительность: 00:53:14

01. Михаил Шуфутинский - Калина красная [03:33]
02. Игорь Слуцкий - Постой душа [04:08]
03. Сергей Дикий - Погоня [03:15]
04. Наталья Штурм - Сретенка [02:58]
05. Миша Гулько - Кончается осень [03:43]
06. Сергей Любавин - Москва-Воронеж [03:13]
07. Лесоповал - Был пацан... [04:02]
08. Сергей ДемИдович - За вагоном вагон [03:45]
09. Евгений Кемеровский - Севастополь [03:53]
10. Игорь Слуцкий - Холода [04:20]
11. Вика Цыганова - Казак не грусти [04:29]
12. Ляпис Трубецкой - Метелица [04:26]
13. Надежда Бабкина - Отшумят, отгремят [02:56]
14. Игорь Высоцкий - Со свиданьицем [04:25]
Exact Audio Copy V1.0 beta 1 from 15. November 2010

Отчёт EAC об извлечении, выполненном 27. мая 2012, 19:43

Various Artists / Калина Красная 1

Дисковод: ASUS DRW-24B3ST Adapter: 0 ID: 1

Режим чтения : ДостоверностьИспользование точного потока : ДаОтключение кэша аудио : ДаИспользование указателей C2 : Нет

Коррекция смещения при чтении : 6Способность читать области Lead-in и Lead-out : НетЗаполнение пропущенных сэмплов тишиной : ДаУдаление блоков с тишиной в начале и конце : НетПри вычислениях CRC использовались нулевые сэмплы : ДаИнтерфейс : Встроенный Win32-интерфейс для Win NT/2000

Выходной формат : Пользовательский кодировщикВыбранный битрейт : 896 kBit/sКачество : ВысокийДобавление ID3-тэга : НетУтилита сжатия : C:\Program Files\FLAC\flac.exeДополнительные параметры : -T "DATE=%y" -T "GENRE=%m" -8 -V %s

TOC извлечённого CD

Трек | Старт | Длительность | Начальный сектор | Конечный сектор --------------------------------------------------------------------- 1 | 0:00.10 | 3:36.05 | 10 | 16214 2 | 3:36.15 | 4:11.50 | 16215 | 35089 3 | 7:47.65 | 3:17.65 | 35090 | 49929 4 | 11:05.55 | 3:01.32 | 49930 | 63536 5 | 14:07.12 | 3:46.48 | 63537 | 80534 6 | 17:53.60 | 3:16.22 | 80535 | 95256 7 | 21:10.07 | 4:04.60 | 95257 | 113616 8 | 25:14.67 | 3:48.28 | 113617 | 130744 9 | 29:03.20 | 3:56.47 | 130745 | 148491 10 | 32:59.67 | 4:23.03 | 148492 | 168219 11 | 37:22.70 | 4:32.05 | 168220 | 188624 12 | 41:55.00 | 4:29.42 | 188625 | 208841 13 | 46:24.42 | 2:59.43 | 208842 | 222309 14 | 49:24.10 | 4:25.50 | 222310 | 242234

Характеристики диапазона извлечения и сообщения об ошибках

Выбранный диапазон

Имя файла D:\trofim\Various Artists - Калина Красная 1.wav

Пиковый уровень 97.7 %0.7 X Качество диапазона 100.0 % CRC теста B789E7B0 CRC копии B789E7B0 Копирование... OK

Ошибок не произошло

AccurateRip: сводка

Трек 1 нет в базе данныхТрек 2 нет в базе данныхТрек 3 нет в базе данныхТрек 4 нет в базе данныхТрек 5 нет в базе данныхТрек 6 нет в базе данныхТрек 7 нет в базе данныхТрек 8 нет в базе данныхТрек 9 нет в базе данныхТрек 10 нет в базе данныхТрек 11 нет в базе данныхТрек 12 нет в базе данныхТрек 13 нет в базе данныхТрек 14 нет в базе данных

Ни одного трека нет в базе AccurateRip

Конец отчёта
AUDIOCHECKER v2.0 beta (build 457) - by Dester - opdester@freemail.hu~~~~~~~~~~~~~~~~~~~~~~~~~~~~~~~~~~-=== НЕ РЕДАКТИРУЙТЕ ЭТОТ ФАЙЛ! ===-

Путь: ...\VA - Калина красная 1 (1997) Flac

1 -=- Various Artists - Калина Красная 1.flac -=- CDDA (100%)

129715588
Номер по каталогу: КСП 00003/98
Продолжительность: 00:49:42

01. Люба Гусева - Письмо брату [03:55]
02. Виктор Королев - Украденная ночь [03:56]
03. Михаил Шуфутинский - Тройка [03:32]
04. Катя Огонек - Я ревную тебя [04:38]
05. Игорь Слуцкий - Между мной и тобой [03:25]
06. гр. Я и брат - Охота [02:52]
07. Гарик Сукачев - За окошком месяц май [04:05]
08. Евгений Кемеровский - Поезд на Магадан [03:44]
09. Мурат Насыров - Танюша [02:03]
10. Владимир Асимов - Самоволочка [02:48]
11. Татьяна Ветрова - И кто его знает [02:12]
12. Виктор Верхотурцев - Туман [04:05]
13. Катя Огонек, Вячеслав Клименков - Черное, черное море [03:34]
14. Дуэт Калина красная - За высшие силы [04:48]
Exact Audio Copy V1.0 beta 1 from 15. November 2010

Отчёт EAC об извлечении, выполненном 2. июля 2012, 22:00

Various / Калина красная 2

Дисковод: ASUS DRW-24B3ST Adapter: 0 ID: 1

Режим чтения : ДостоверностьИспользование точного потока : ДаОтключение кэша аудио : ДаИспользование указателей C2 : Нет

Коррекция смещения при чтении : 6Способность читать области Lead-in и Lead-out : НетЗаполнение пропущенных сэмплов тишиной : ДаУдаление блоков с тишиной в начале и конце : НетПри вычислениях CRC использовались нулевые сэмплы : ДаИнтерфейс : Встроенный Win32-интерфейс для Win NT/2000

Выходной формат : Пользовательский кодировщикВыбранный битрейт : 896 kBit/sКачество : ВысокийДобавление ID3-тэга : НетУтилита сжатия : C:\Program Files\FLAC\flac.exeДополнительные параметры : -T "DATE=%y" -T "GENRE=%m" -8 -V %s

TOC извлечённого CD

Трек | Старт | Длительность | Начальный сектор | Конечный сектор --------------------------------------------------------------------- 1 | 0:00.00 | 3:58.52 | 0 | 17901 2 | 3:58.52 | 3:59.18 | 17902 | 35844 3 | 7:57.70 | 3:35.47 | 35845 | 52016 4 | 11:33.42 | 4:41.20 | 52017 | 73111 5 | 16:14.62 | 3:28.23 | 73112 | 88734 6 | 19:43.10 | 2:55.65 | 88735 | 101924 7 | 22:39.00 | 4:08.15 | 101925 | 120539 8 | 26:47.15 | 3:47.10 | 120540 | 137574 9 | 30:34.25 | 2:06.30 | 137575 | 147054 10 | 32:40.55 | 2:51.15 | 147055 | 159894 11 | 35:31.70 | 2:15.05 | 159895 | 170024 12 | 37:47.00 | 4:08.37 | 170025 | 188661 13 | 41:55.37 | 3:37.55 | 188662 | 204991 14 | 45:33.17 | 4:48.18 | 204992 | 226609

Характеристики диапазона извлечения и сообщения об ошибках

Выбранный диапазон

Имя файла D:\trofim\Various - Калина красная 2.wav

Пиковый уровень 99.7 %0.7 X Качество диапазона 99.9 % CRC теста DFF8349B CRC копии DFF8349B Копирование... OK

Ошибок не произошло

AccurateRip: сводка

Трек 1 нет в базе данныхТрек 2 нет в базе данныхТрек 3 нет в базе данныхТрек 4 нет в базе данныхТрек 5 нет в базе данныхТрек 6 нет в базе данныхТрек 7 нет в базе данныхТрек 8 нет в базе данныхТрек 9 нет в базе данныхТрек 10 нет в базе данныхТрек 11 нет в базе данныхТрек 12 нет в базе данныхТрек 13 нет в базе данныхТрек 14 нет в базе данных

Ни одного трека нет в базе AccurateRip

Конец отчёта
AUDIOCHECKER v2.0 beta (build 457) - by Dester - opdester@freemail.hu~~~~~~~~~~~~~~~~~~~~~~~~~~~~~~~~~~-=== НЕ РЕДАКТИРУЙТЕ ЭТОТ ФАЙЛ! ===-

Путь: ...\VA - Калина красная 2 (1998) Flac

1 -=- Various - Калина красная 2.flac -=- CDDA (99%)

37996708
Номер по каталогу: КСП 007/99
Продолжительность: 01:00:30

01. Татьяна Громова и ''Туда-суда'' - Деревенька [03:41]
02. гр.Я и брат - Молодая-красивая [03:57]
03. Виктор Королев - Пьяная вишня [04:59]
04. Катя Огонек - Я зажгу для тебя огонек [03:31]
05. Демидыч - Поезд на Воркуту [03:55]
06. Андрей Никольский - Не ко двору [03:29]
07. Дмитрий Лысенко - После праздника [03:34]
08. Дуэт Катя Огонек и Виктор Королев - Дым кольцами [04:16]
09. Шпец - Я сижу на шконке [04:16]
10. Виктор Верхотурцев - Письмо [04:05]
11. Надежда Бабкина - От ворот поворот [03:59]
12. гр.Митрофановна - Ни кто тебя не любит так как я [03:19]
13. Игорь Слуцкий - Приходите в мой дом [03:37]
14. Отец и сын Осиповы - Морзянка [03:01]
15. Отец и сын Осиповы - Карелия [03:37]
16. Отец и сын Осиповы - Прощайте скалистые горы [03:07]
Exact Audio Copy V1.0 beta 3 from 29. August 2011

Отчёт EAC об извлечении, выполненном 16. ноября 2011, 15:42

Various Artists / Калина Красная 3

Дисковод: PIONEER DVD-RW DVR-118L Adapter: 0 ID: 0

Режим чтения : ДостоверностьИспользование точного потока : ДаОтключение кэша аудио : ДаИспользование указателей C2 : Нет

Коррекция смещения при чтении : 6Способность читать области Lead-in и Lead-out : НетЗаполнение пропущенных сэмплов тишиной : ДаУдаление блоков с тишиной в начале и конце : НетПри вычислениях CRC использовались нулевые сэмплы : ДаИнтерфейс : Встроенный Win32-интерфейс для Win NT/2000

Выходной формат : Пользовательский кодировщикВыбранный битрейт : 768 kBit/sКачество : ВысокийДобавление ID3-тега : НетУтилита сжатия : C:\Program Files\Exact Audio Copy\FLAC\FLAC.EXEДополнительные параметры : -6 -V -T "ARTIST=%artist%" -T "TITLE=%title%" -T "ALBUM=%albumtitle%" -T "DATE=%year%" -T "TRACKNUMBER=%tracknr%" -T "GENRE=%genre%" -T "COMMENT=%comment%" -T "BAND=%albuminterpret%" -T "COMPOSER=%composer%" %haslyrics%--tag-from-file=LYRICS="%lyricsfile%"%haslyrics% -T "DISCNUMBER=%cdnumber%" -T "TOTALDISCS=%totalcds%" -T "TOTALTRACKS=%numtracks%" %hascover%--picture="%coverfile%"%hascover% %source% -o %dest%

TOC извлечённого CD

Трек | Старт | Длительность | Начальный сектор | Конечный сектор --------------------------------------------------------------------- 1 | 0:00.00 | 3:41.10 | 0 | 16584 2 | 3:41.10 | 3:57.04 | 16585 | 34363 3 | 7:38.14 | 4:59.43 | 34364 | 56831 4 | 12:37.57 | 3:31.23 | 56832 | 72679 5 | 16:09.05 | 3:55.39 | 72680 | 90343 6 | 20:04.44 | 3:29.01 | 90344 | 106019 7 | 23:33.45 | 3:34.34 | 106020 | 122103 8 | 27:08.04 | 4:16.43 | 122104 | 141346 9 | 31:24.47 | 4:16.74 | 141347 | 160620 10 | 35:41.46 | 4:05.02 | 160621 | 178997 11 | 39:46.48 | 3:59.59 | 178998 | 196981 12 | 43:46.32 | 3:19.36 | 196982 | 211942 13 | 47:05.68 | 3:37.21 | 211943 | 228238 14 | 50:43.14 | 3:01.29 | 228239 | 241842 15 | 53:44.43 | 3:37.56 | 241843 | 258173 16 | 57:22.24 | 3:07.58 | 258174 | 272256

Характеристики диапазона извлечения и сообщения об ошибках

Выбранный диапазон

Имя файла I:\Раздачи 3\VA_Калина Красная 3_Песни спетые сердцем_1999 г\Various Artists - Калина Красная 3.wav

Пиковый уровень 99.8 % Скорость извлечения 5.7 X Качество диапазона 99.9 % CRC теста E38298AA CRC копии E38298AA Копирование... OK

Ошибок не произошло

AccurateRip: сводка

Трек 1 отсутствует в базе данныхТрек 2 отсутствует в базе данныхТрек 3 отсутствует в базе данныхТрек 4 отсутствует в базе данныхТрек 5 отсутствует в базе данныхТрек 6 отсутствует в базе данныхТрек 7 отсутствует в базе данныхТрек 8 отсутствует в базе данныхТрек 9 отсутствует в базе данныхТрек 10 отсутствует в базе данныхТрек 11 отсутствует в базе данныхТрек 12 отсутствует в базе данныхТрек 13 отсутствует в базе данныхТрек 14 отсутствует в базе данныхТрек 15 отсутствует в базе данныхТрек 16 отсутствует в базе данных

Ни одного трека нет в базе AccurateRip

Конец отчёта
AUDIOCHECKER v2.0 beta (build 457) - by Dester - opdester@freemail.hu~~~~~~~~~~~~~~~~~~~~~~~~~~~~~~~~~~

Начато: среда, 16. 11. 2011. - 15:43.12Найдено файлов: 1

1 -===- I:\Раздачи 3\VA_Калина Красная 3_Песни спетые сердцем_1999 г\Various Artists - Калина Красная 3.flac Извлечение успешно выполнено Заключение: этот трек - CDDA с вероятностью 100% Временный файл удалён.

Завершено: среда, 16. 11. 2011. - 15:56.32 (Время операции: 0:13.20)
Номер по каталогу: CC CD 006/00
Продолжительность: 01:02:24

01. М.Шуфутинский,М.Круг,В.Медяник,К.Огонёк,Г.Грач - Пацаны [03:24]
02. Александр Маршал - Рота [04:19]
03. Серней Любавин - Грустная [04:13]
04. Гера Грач - Северная история [06:02]
05. Игорь Слуцкий - Кони [05:16]
06. Андрей Бандера - По этапу [02:42]
07. Виктор Королёв - Мама, помолись [04:09]
08. Михаил Шуфутинский - Барышня-Черешня [04:27]
09. Владислав Медяник - Я в весеннем лесу... [03:40]
10. Евгений Кемеровский - Ещё не осень [04:07]
11. Катя Огонёк - Одинокое лето [04:39]
12. Михаил Шелег - За удачу [05:02]
13. Игорь Слуцкий - Калина красная [04:17]
14. Михаил Круг - Каторжанская цыганочка [06:00]
Exact Audio Copy V1.0 beta 1 from 15. November 2010

Отчёт EAC об извлечении, выполненном 7. января 2014, 22:31

Various / Калина красная 4

Дисковод: _NEC DV-5800E Adapter: 0 ID: 1

Режим чтения : ДостоверностьИспользование точного потока : ДаОтключение кэша аудио : ДаИспользование указателей C2 : Нет

Коррекция смещения при чтении : 6Способность читать области Lead-in и Lead-out : НетЗаполнение пропущенных сэмплов тишиной : ДаУдаление блоков с тишиной в начале и конце : НетПри вычислениях CRC использовались нулевые сэмплы : ДаИнтерфейс : Установленный внешний ASPI-интерфейс

Выходной формат : Внутренние WAV-операцииФормат сэмплов : 44.100 Гц; 16 бит; стерео

TOC извлечённого CD

Трек | Старт | Длительность | Начальный сектор | Конечный сектор --------------------------------------------------------------------- 1 | 0:00.10 | 3:24.64 | 10 | 15373 2 | 3:24.74 | 4:19.24 | 15374 | 34822 3 | 7:44.23 | 4:13.25 | 34823 | 53822 4 | 11:57.48 | 6:02.67 | 53823 | 81039 5 | 18:00.40 | 5:16.34 | 81040 | 104773 6 | 23:16.74 | 2:42.20 | 104774 | 116943 7 | 25:59.19 | 4:09.63 | 116944 | 135681 8 | 30:09.07 | 4:27.62 | 135682 | 155768 9 | 34:36.69 | 3:40.63 | 155769 | 172331 10 | 38:17.57 | 4:07.03 | 172332 | 190859 11 | 42:24.60 | 4:39.06 | 190860 | 211790 12 | 47:03.66 | 5:02.56 | 211791 | 234496 13 | 52:06.47 | 4:17.55 | 234497 | 253826 14 | 56:24.27 | 6:00.38 | 253827 | 280864

Характеристики диапазона извлечения и сообщения об ошибках

Выбранный диапазон

Имя файла C:\Documents and Settings\Admin\Рабочий стол\2000 - Калина красная 4\Various - Калина красная 4.wav

Пиковый уровень 97.7 %0.8 X Качество диапазона 100.0 % CRC теста 6270B894 CRC копии 6270B894 Копирование... OK

Ошибок не произошло

AccurateRip: сводка

Трек 1 нет в базе данныхТрек 2 нет в базе данныхТрек 3 нет в базе данныхТрек 4 нет в базе данныхТрек 5 нет в базе данныхТрек 6 нет в базе данныхТрек 7 нет в базе данныхТрек 8 нет в базе данныхТрек 9 нет в базе данныхТрек 10 нет в базе данныхТрек 11 нет в базе данныхТрек 12 нет в базе данныхТрек 13 нет в базе данныхТрек 14 нет в базе данных

Ни одного трека нет в базе AccurateRip

Конец отчёта
AUDIOCHECKER v2.0 beta (build 457) - by Dester - opdester@freemail.hu~~~~~~~~~~~~~~~~~~~~~~~~~~~~~~~~~~-=== НЕ РЕДАКТИРУЙТЕ ЭТОТ ФАЙЛ! ===-

Путь: ...\2000 - Калина красная 4

1 -=- Various - Калина красная 4.flac -=- CDDA (100%)

71013156
Номер по каталогу: CC MC 001/01
Продолжительность: 01:03:00

01. Оксана Орлова - Сын [03:17]
02. Михаил Круг - По щенячьи и по волчьи [03:41]
03. Гера Грач - Серый или Северная история-2 [03:44]
04. Беломорканал - Пила [02:01]
05. Игорь Слуцкий - Белые поленья [03:44]
06. Сергей Любавин - Сибирская [04:21]
07. Вячеслав Клименков - Шерхан [04:01]
08. Калина Красная - Помни обо мне [03:11]
09. Воровайки - Мамочка-воровочка [03:51]
10. Михаил Шуфутинский - Скрипочка [04:53]
11. Александр Маршал - Волчицы [03:24]
12. Лесоповал - Молитва [04:12]
13. Михаил Шелег - Я вернусь [05:03]
14. Аня Воробей - Ворона [04:35]
15. Аня Воробей - Расконвойный [05:14]
16. Аня Воробей - Встреча [03:40]
Exact Audio Copy V0.99 prebeta 4 from 23. January 2008

Отчёт EAC об извлечении, выполненном 8. января 2009, 19:12

Various / Калина красная 5

Дисковод: Optiarc DVD RW AD-7201S Adapter: 3 ID: 0

Режим чтения : ДостоверностьИспользование точного потока : ДаОтключение кэша аудио : ДаИспользование указателей C2 : Нет

Коррекция смещения при чтении : 48Способность читать области Lead-in и Lead-out : НетЗаполнение пропущенных сэмплов тишиной : ДаУдаление блоков с тишиной в начале и конце : НетПри вычислениях CRC использовались нулевые сэмплы : ДаИнтерфейс : Установленный внешний ASPI-интерфейс

Выходной формат : Внутренние WAV-операцииФормат сэмплов : 44.100 Гц; 16 бит; стерео

TOC извлечённого CD

Трек | Старт | Длительность | Начальный сектор | Конечный сектор --------------------------------------------------------------------- 1 | 0:00.00 | 3:19.58 | 0 | 14982 2 | 3:19.58 | 3:43.59 | 14983 | 31766 3 | 7:03.42 | 3:47.18 | 31767 | 48809 4 | 10:50.60 | 2:04.07 | 48810 | 58116 5 | 12:54.67 | 3:46.70 | 58117 | 75136 6 | 16:41.62 | 4:23.70 | 75137 | 94931 7 | 21:05.57 | 4:04.18 | 94932 | 113249 8 | 25:10.00 | 3:14.35 | 113250 | 127834 9 | 28:24.35 | 3:53.65 | 127835 | 145374 10 | 32:18.25 | 4:55.72 | 145375 | 167571 11 | 37:14.22 | 3:27.35 | 167572 | 183131 12 | 40:41.57 | 4:15.06 | 183132 | 202262 13 | 44:56.63 | 5:05.52 | 202263 | 225189 14 | 50:02.40 | 4:36.15 | 225190 | 245904 15 | 54:38.55 | 5:14.71 | 245905 | 269525 16 | 59:53.51 | 3:40.72 | 269526 | 286097

Характеристики диапазона извлечения и сообщения об ошибках

Выбранный диапазон

Имя файла D:\Various - Калина красная 5.wav

Пиковый уровень 98.8 % Качество диапазона 100.0 % CRC копии B92B4222 Копирование... OK

Ошибок не произошло

Конец отчёта
AUDIOCHECKER v2.0 beta (build 457) - by Dester - opdester@freemail.hu~~~~~~~~~~~~~~~~~~~~~~~~~~~~~~~~~~

Начато: четверг, 08. 01. 2009. - 19:17.57Найдено файлов: 1

1 -===- D:\VA - Калина Красная 5 - 2001\Various - Калина красная 5.wav Заключение: этот трек - CDDA с вероятностью 100%

Завершено: четверг, 08. 01. 2009. - 19:21.51 (Время операции: 0:03.54)
Номер по каталогу: GR CD - 117 - 01
Продолжительность: 00:59:04
Источник (релизер): tolik38

01. Михаил Круг, Михаил Гулько - Свобода [03:27]
02. Игорь Слуцкий - Маленький бродяга [03:51]
03. Владимир Захаров - На кольцевой [03:48]
04. Беломорканал - Петербургская история [04:31]
05. Сергей Любавин - Куртизанки [04:09]
06. Гера Грач - Татарин [02:58]
07. Виктор Клименков - Свиданка [03:28]
08. Трофим - Судьба [03:29]
09. Александр Маршал - Особый [03:08]
10. Катя Огонёк - Уезжаю [03:21]
11. Евгений Кемеровский - Малява [04:13]
12. Таня Тишинская - Я целовала тебя [03:35]
13. Михаил Шуфутинский - Пересылка [04:08]
14. Аня Воробей и Рок-Острова - Побег [04:30]
15. Аня Воробей и Рок-Острова - Иван [03:39]
16. Аня Воробей и Рок-Острова - Осень на Севере [02:42]
Exact Audio Copy V1.0 beta 1 from 15. November 2010

Отчёт EAC об извлечении, выполненном 7. января 2014, 21:18

Various / VA Калина красная - 6

Дисковод: Optiarc DVD RW AD-7260S Adapter: 1 ID: 0

Режим чтения : ДостоверностьИспользование точного потока : ДаОтключение кэша аудио : ДаИспользование указателей C2 : Нет

Коррекция смещения при чтении : 48Способность читать области Lead-in и Lead-out : НетЗаполнение пропущенных сэмплов тишиной : ДаУдаление блоков с тишиной в начале и конце : НетПри вычислениях CRC использовались нулевые сэмплы : ДаИнтерфейс : Встроенный Win32-интерфейс для Win NT/2000

Выходной формат : Внутренние WAV-операцииФормат сэмплов : 44.100 Гц; 16 бит; стерео

TOC извлечённого CD

Трек | Старт | Длительность | Начальный сектор | Конечный сектор --------------------------------------------------------------------- 1 | 0:00.10 | 3:27.70 | 10 | 15604 2 | 3:28.05 | 3:51.20 | 15605 | 32949 3 | 7:19.25 | 3:48.15 | 32950 | 50064 4 | 11:07.40 | 4:31.58 | 50065 | 70447 5 | 15:39.23 | 4:09.54 | 70448 | 89176 6 | 19:49.02 | 2:58.06 | 89177 | 102532 7 | 22:47.08 | 3:28.62 | 102533 | 118194 8 | 26:15.70 | 3:29.03 | 118195 | 133872 9 | 29:44.73 | 3:08.21 | 133873 | 147993 10 | 32:53.19 | 3:21.42 | 147994 | 163110 11 | 36:14.61 | 4:13.03 | 163111 | 182088 12 | 40:27.64 | 3:35.29 | 182089 | 198242 13 | 44:03.18 | 4:08.67 | 198243 | 216909 14 | 48:12.10 | 4:30.24 | 216910 | 237183 15 | 52:42.34 | 3:39.41 | 237184 | 253649 16 | 56:22.00 | 2:42.69 | 253650 | 265868

Характеристики диапазона извлечения и сообщения об ошибках

Выбранный диапазон

Имя файла C:\Users\Анатолий\Desktop\Музыка\VA Калина красная\2001 - VA Калина красная - 6\Various - VA Калина красная - 6.wav

Пиковый уровень 98.8 %0.1 X Качество диапазона 100.0 % CRC теста ED26467D CRC копии ED26467D Копирование... OK

Ошибок не произошло

AccurateRip: сводка

Трек 1 нет в базе данныхТрек 2 нет в базе данныхТрек 3 нет в базе данныхТрек 4 нет в базе данныхТрек 5 нет в базе данныхТрек 6 нет в базе данныхТрек 7 нет в базе данныхТрек 8 нет в базе данныхТрек 9 нет в базе данныхТрек 10 нет в базе данныхТрек 11 нет в базе данныхТрек 12 нет в базе данныхТрек 13 нет в базе данныхТрек 14 нет в базе данныхТрек 15 нет в базе данныхТрек 16 нет в базе данных

Ни одного трека нет в базе AccurateRip

Конец отчёта

==== 2A018EC47E90658F2D1406CCD8AEA45209899F6A79C868F3A762E4BFDCC37F85 ====
AUDIOCHECKER v2.0 beta (build 457) - by Dester - opdester@freemail.hu~~~~~~~~~~~~~~~~~~~~~~~~~~~~~~~~~~-=== НЕ РЕДАКТИРУЙТЕ ЭТОТ ФАЙЛ! ===-

Путь: ...\2001 - Калина красная 6

1 -=- Various - VA Калина красная - 6.flac -=- CDDA (100%)

250056612
Номер по каталогу: CD КСП 05 - 2001
Продолжительность: 01:08:45
Источник (релизер): tolik38

01. Аня Воробей - Маму забирают в тюрьму [04:08]
02. Владимир Захаров - Схватка [04:08]
03. Андрей Бандера - Ивушки [04:06]
04. Таня Тишинская - Хочешь? [03:09]
05. Трофим - Снегири [02:59]
06. Олег Алябин - Последняя любовь [04:54]
07. Сергей Любавин - Лебедь белая [04:10]
08. Гера Грач - Жулик и чекист [02:12]
09. Игорь Слуцкий - Не могу по другому [04:37]
10. Анатолий Днепров - Ах, как жаль... [03:40]
11. Александр Маршал - Не забыть [04:49]
12. Сергей Ткач - Пожелай удачи [03:53]
13. Сергей Ткач - Поговорим, отец [04:58]
14. Аня Воробей и Рок-Острова - Белое безмолвие [05:38]
15. Аня Воробей и Рок-Острова - Шаман [04:11]
16. Аня Воробей и Рок-Острова - Лёха - Змей [03:26]
17. Аня Воробей и Рок-Острова - В дорогу [03:42]
Exact Audio Copy V1.0 beta 1 from 15. November 2010

Отчёт EAC об извлечении, выполненном 7. января 2014, 21:57

Various / VA Калина красная - 7

Дисковод: Optiarc DVD RW AD-7260S Adapter: 1 ID: 0

Режим чтения : ДостоверностьИспользование точного потока : ДаОтключение кэша аудио : ДаИспользование указателей C2 : Нет

Коррекция смещения при чтении : 48Способность читать области Lead-in и Lead-out : НетЗаполнение пропущенных сэмплов тишиной : ДаУдаление блоков с тишиной в начале и конце : НетПри вычислениях CRC использовались нулевые сэмплы : ДаИнтерфейс : Встроенный Win32-интерфейс для Win NT/2000

Выходной формат : Внутренние WAV-операцииФормат сэмплов : 44.100 Гц; 16 бит; стерео

TOC извлечённого CD

Трек | Старт | Длительность | Начальный сектор | Конечный сектор --------------------------------------------------------------------- 1 | 0:00.10 | 4:08.26 | 10 | 18635 2 | 4:08.36 | 4:08.20 | 18636 | 37255 3 | 8:16.56 | 4:06.35 | 37256 | 55740 4 | 12:23.16 | 3:09.17 | 55741 | 69932 5 | 15:32.33 | 2:59.42 | 69933 | 83399 6 | 18:32.00 | 4:54.17 | 83400 | 105466 7 | 23:26.17 | 4:10.10 | 105467 | 124226 8 | 27:36.27 | 2:12.12 | 124227 | 134138 9 | 29:48.39 | 4:37.28 | 134139 | 154941 10 | 34:25.67 | 3:40.02 | 154942 | 171443 11 | 38:05.69 | 4:49.46 | 171444 | 193164 12 | 42:55.40 | 3:53.31 | 193165 | 210670 13 | 46:48.71 | 4:58.45 | 210671 | 233065 14 | 51:47.41 | 5:38.61 | 233066 | 258476 15 | 57:26.27 | 4:11.05 | 258477 | 277306 16 | 61:37.32 | 3:26.18 | 277307 | 292774 17 | 65:03.50 | 3:42.24 | 292775 | 309448

Характеристики диапазона извлечения и сообщения об ошибках

Выбранный диапазон

Имя файла C:\Users\Анатолий\Desktop\Музыка\VA Калина красная\2001 - VA Калина красная - 7\Various - VA Калина красная - 7.wav

Пиковый уровень 100.0 %0.2 X Качество диапазона 100.0 % CRC теста 13EC517B CRC копии 13EC517B Копирование... OK

Ошибок не произошло

AccurateRip: сводка

Трек 1 нет в базе данныхТрек 2 нет в базе данныхТрек 3 нет в базе данныхТрек 4 нет в базе данныхТрек 5 нет в базе данныхТрек 6 нет в базе данныхТрек 7 нет в базе данныхТрек 8 нет в базе данныхТрек 9 нет в базе данныхТрек 10 нет в базе данныхТрек 11 нет в базе данныхТрек 12 нет в базе данныхТрек 13 нет в базе данныхТрек 14 нет в базе данныхТрек 15 нет в базе данныхТрек 16 нет в базе данныхТрек 17 нет в базе данных

Ни одного трека нет в базе AccurateRip

Конец отчёта

==== 402593872B8B8592B89DAA053746DFDEDDCEA5C36F2EA34476A32DA42EE4476B ====
AUDIOCHECKER v2.0 beta (build 457) - by Dester - opdester@freemail.hu~~~~~~~~~~~~~~~~~~~~~~~~~~~~~~~~~~-=== НЕ РЕДАКТИРУЙТЕ ЭТОТ ФАЙЛ! ===-

Путь: ...\2001 - Калина красная 7

1 -=- Various - VA Калина красная - 7.flac -=- CDDA (100%)

249585572
Номер по каталогу: AS 1339-1
Продолжительность: 00:55:40

01. И.Слуцкий - Приходите в мой дом [03:37]
02. Катя Огонек и В.Королев - Дым кольцами [04:16]
03. Трофим - Судьба [03:29]
04. Шпец - Я сижу на шконке [04:16]
05. Катя Огонек - Я ревную тебя [04:41]
06. В.Королев - Украденная ночь [03:59]
07. И.Слуцкий - Холода [04:23]
08. гр.Ляпис Трубецкой - Метелица [04:29]
09. М.Шуфутинский - Тройка [03:35]
10. Таня Тишинская - Я целовала тебя [03:35]
11. С.Любавин - Сибирская [04:23]
12. В.Асимов - Самоволочка [02:51]
13. М.Шуфутинский - Калина красная [03:36]
14. И.Высоцкий - Со свиданьицем [04:25]
Exact Audio Copy V1.0 beta 1 from 15. November 2010

Отчёт EAC об извлечении, выполненном 27. мая 2012, 20:36

Various / Калина красная. Лучшее 1

Дисковод: ASUS DRW-24B3ST Adapter: 0 ID: 1

Режим чтения : ДостоверностьИспользование точного потока : ДаОтключение кэша аудио : ДаИспользование указателей C2 : Нет

Коррекция смещения при чтении : 6Способность читать области Lead-in и Lead-out : НетЗаполнение пропущенных сэмплов тишиной : ДаУдаление блоков с тишиной в начале и конце : НетПри вычислениях CRC использовались нулевые сэмплы : ДаИнтерфейс : Встроенный Win32-интерфейс для Win NT/2000

Выходной формат : Пользовательский кодировщикВыбранный битрейт : 896 kBit/sКачество : ВысокийДобавление ID3-тэга : НетУтилита сжатия : C:\Program Files\FLAC\flac.exeДополнительные параметры : -T "DATE=%y" -T "GENRE=%m" -8 -V %s

TOC извлечённого CD

Трек | Старт | Длительность | Начальный сектор | Конечный сектор --------------------------------------------------------------------- 1 | 0:00.00 | 3:39.21 | 0 | 16445 2 | 3:39.21 | 4:18.43 | 16446 | 35838 3 | 7:57.64 | 3:31.03 | 35839 | 51666 4 | 11:28.67 | 4:18.74 | 51667 | 71090 5 | 15:47.66 | 4:43.20 | 71091 | 92335 6 | 20:31.11 | 4:01.18 | 92336 | 110428 7 | 24:32.29 | 4:25.03 | 110429 | 130306 8 | 28:57.32 | 4:31.42 | 130307 | 150673 9 | 33:28.74 | 3:37.47 | 150674 | 166995 10 | 37:06.46 | 3:37.29 | 166996 | 183299 11 | 40:44.00 | 4:25.70 | 183300 | 203244 12 | 45:09.70 | 2:53.15 | 203245 | 216234 13 | 48:03.10 | 3:38.05 | 216235 | 232589 14 | 51:41.15 | 4:25.50 | 232590 | 252514

Характеристики диапазона извлечения и сообщения об ошибках

Выбранный диапазон

Имя файла D:\trofim\Various - Калина красная. Лучшее 1.wav

Пиковый уровень 99.8 %0.6 X Качество диапазона 100.0 % CRC теста 9C3E3630 CRC копии 9C3E3630 Копирование... OK

Ошибок не произошло

AccurateRip: сводка

Трек 1 нет в базе данныхТрек 2 нет в базе данныхТрек 3 нет в базе данныхТрек 4 нет в базе данныхТрек 5 нет в базе данныхТрек 6 нет в базе данныхТрек 7 нет в базе данныхТрек 8 нет в базе данныхТрек 9 нет в базе данныхТрек 10 нет в базе данныхТрек 11 нет в базе данныхТрек 12 нет в базе данныхТрек 13 нет в базе данныхТрек 14 нет в базе данных

Ни одного трека нет в базе AccurateRip

Конец отчёта
AUDIOCHECKER v2.0 beta (build 457) - by Dester - opdester@freemail.hu~~~~~~~~~~~~~~~~~~~~~~~~~~~~~~~~~~-=== НЕ РЕДАКТИРУЙТЕ ЭТОТ ФАЙЛ! ===-

Путь: ...\Калина красная. Лучшее... 1997 - 2001. Часть 1

1 -=- Various - Калина красная. Лучшее 1.flac -=- CDDA (100%)

56276644
Номер по каталогу: AS 1339-2
Продолжительность: 00:57:35

01. М.Шуфутинский, М.Круг, Катя Огонек, В.Медяник, Г.Грач - Пацаны [03:24]
02. А.Маршал - Рота [04:19]
03. Гера Грач - Северная История [06:02]
04. Беломорканал - Петербургская история [04:31]
05. Е.Кемеровский - Малява [04:13]
06. Гера Грач - Татарин [02:58]
07. Аня Воробей и Рок-Острова - Осень на Севере [02:42]
08. М.Гулько - Кончается осень [03:46]
09. В.Захаров - На кольцевой... [03:48]
10. Е.Кемеровский - Еще не осень [04:09]
11. В.Клименков - Серый волк [05:07]
12. Катя Огонек и В.Клименков - Черное, черное море [03:37]
13. Лесоповал - Был пацан... [04:04]
14. дуэт Калина красная - За высшие силы [04:48]
Exact Audio Copy V1.0 beta 1 from 15. November 2010

Отчёт EAC об извлечении, выполненном 27. мая 2012, 21:08

Various artists / Калина красная. Лучшее 2

Дисковод: ASUS DRW-24B3ST Adapter: 0 ID: 1

Режим чтения : ДостоверностьИспользование точного потока : ДаОтключение кэша аудио : ДаИспользование указателей C2 : Нет

Коррекция смещения при чтении : 6Способность читать области Lead-in и Lead-out : НетЗаполнение пропущенных сэмплов тишиной : ДаУдаление блоков с тишиной в начале и конце : НетПри вычислениях CRC использовались нулевые сэмплы : ДаИнтерфейс : Встроенный Win32-интерфейс для Win NT/2000

Выходной формат : Пользовательский кодировщикВыбранный битрейт : 896 kBit/sКачество : ВысокийДобавление ID3-тэга : НетУтилита сжатия : C:\Program Files\FLAC\flac.exeДополнительные параметры : -T "DATE=%y" -T "GENRE=%m" -8 -V %s

TOC извлечённого CD

Трек | Старт | Длительность | Начальный сектор | Конечный сектор --------------------------------------------------------------------- 1 | 0:00.00 | 3:26.64 | 0 | 15513 2 | 3:26.64 | 4:21.24 | 15514 | 35112 3 | 7:48.13 | 6:04.67 | 35113 | 62479 4 | 13:53.05 | 4:33.58 | 62480 | 83012 5 | 18:26.63 | 4:15.17 | 83013 | 102154 6 | 22:42.05 | 3:00.06 | 102155 | 115660 7 | 25:42.11 | 2:44.69 | 115661 | 128029 8 | 28:27.05 | 3:48.48 | 128030 | 145177 9 | 32:15.53 | 3:50.15 | 145178 | 162442 10 | 36:05.68 | 4:11.08 | 162443 | 181275 11 | 40:17.01 | 5:09.26 | 181276 | 204476 12 | 45:26.27 | 3:39.55 | 204477 | 220956 13 | 49:06.07 | 4:06.60 | 220957 | 239466 14 | 53:12.67 | 4:48.18 | 239467 | 261084

Характеристики диапазона извлечения и сообщения об ошибках

Выбранный диапазон

Имя файла D:\trofim\Various artists - Калина красная. Лучшее 2.wav

Пиковый уровень 100.0 %0.7 X Качество диапазона 100.0 % CRC теста 8FA6147A CRC копии 8FA6147A Копирование... OK

Ошибок не произошло

AccurateRip: сводка

Трек 1 нет в базе данныхТрек 2 нет в базе данныхТрек 3 нет в базе данныхТрек 4 нет в базе данныхТрек 5 нет в базе данныхТрек 6 нет в базе данныхТрек 7 нет в базе данныхТрек 8 нет в базе данныхТрек 9 нет в базе данныхТрек 10 нет в базе данныхТрек 11 нет в базе данныхТрек 12 нет в базе данныхТрек 13 нет в базе данныхТрек 14 нет в базе данных

Ни одного трека нет в базе AccurateRip

Конец отчёта
AUDIOCHECKER v2.0 beta (build 457) - by Dester - opdester@freemail.hu~~~~~~~~~~~~~~~~~~~~~~~~~~~~~~~~~~-=== НЕ РЕДАКТИРУЙТЕ ЭТОТ ФАЙЛ! ===-

Путь: ...\Калина красная. Лучшее... 1997 - 2001. Часть 2

1 -=- Various artists - Калина красная. Лучшее 2.flac -=- CDDA (100%)

6267844
Номер по каталогу: CD КСП 14-2002
Продолжительность: 01:07:02

01. Михаил Круг - Я жду тебя (версия, ранее не изданная) [ 04:41 ]
02. Игорь Слуцкий - Оборвется струна (new) [ 03:56 ]
03. Аня Воробей и гр.Рок-Острова - Тишина (new) [ 04:13 ]
04. Иван Кучин - Багульник [ 03:46 ]
05. Сергей Любавин - Брат вестовой (new) [ 03:04 ]
06. Александр Маршал - Барак (new) [ 03:06 ]
07. Евгений Кемеровский - Кофточка (new) [ 03:59 ]
08. Т.Тишинская и А.Дюмин - Май [ 02:46 ]
09. Саша Кайданский - Заплутали мишки, заплутали (new) [ 03:20 ]
10. гр.Дальний свет - Повороты (new) [ 03:24 ]
11. Жига - Волюшка (new) [ 03:09 ]
12. Сергей Ткач - Сибирский тракт (new) [ 03:41 ]
13. Вячеслав Клименков - Колыма (new) [ 03:06 ]
14. Трофим - Запричитала, мать [ 02:32 ]
15. Ильдар Южный - Старик (new) [ 04:31 ]
16. Гера Грач - Господи Иисусе [ 02:14 ]
17. Жига - Звездочка (new) [ 04:45 ]
18. Владимир Захаров (гр.Рок-Острова) - Лебеди (new) [ 03:35 ]
19. P.S. Демо-микс А.Воробей и гр.Рок-Острова - Коктуйская история ч.4 ''Кум'' [ 03:04 ]
Exact Audio Copy V1.0 beta 1 from 15. November 2010

Отчёт EAC об извлечении, выполненном 22. марта 2012, 21:22

Various / Калина красная 8

Дисковод: ASUS DRW-24B3ST Adapter: 0 ID: 1

Режим чтения : ДостоверностьИспользование точного потока : ДаОтключение кэша аудио : ДаИспользование указателей C2 : Нет

Коррекция смещения при чтении : 6Способность читать области Lead-in и Lead-out : НетЗаполнение пропущенных сэмплов тишиной : ДаУдаление блоков с тишиной в начале и конце : НетПри вычислениях CRC использовались нулевые сэмплы : ДаИнтерфейс : Установленный внешний ASPI-интерфейс

Выходной формат : Пользовательский кодировщикВыбранный битрейт : 768 kBit/sКачество : ВысокийДобавление ID3-тэга : НетУтилита сжатия : C:\Program Files\Exact Audio Copy\Flac\flac.exeДополнительные параметры : -T "DATE=%y" -T "GENRE=%m" -8 -V %s

TOC извлечённого CD

Трек | Старт | Длительность | Начальный сектор | Конечный сектор --------------------------------------------------------------------- 1 | 0:00.00 | 4:43.73 | 0 | 21297 2 | 4:43.73 | 3:58.03 | 21298 | 39150 3 | 8:42.01 | 4:15.71 | 39151 | 58346 4 | 12:57.72 | 3:48.03 | 58347 | 75449 5 | 16:46.00 | 3:06.74 | 75450 | 89473 6 | 19:52.74 | 3:08.07 | 89474 | 103580 7 | 23:01.06 | 4:01.69 | 103581 | 121724 8 | 27:03.00 | 2:48.14 | 121725 | 134338 9 | 29:51.14 | 3:22.64 | 134339 | 149552 10 | 33:14.03 | 3:26.63 | 149553 | 165065 11 | 36:40.66 | 3:11.18 | 165066 | 179408 12 | 39:52.09 | 3:43.70 | 179409 | 196203 13 | 43:36.04 | 3:08.12 | 196204 | 210315 14 | 46:44.16 | 2:34.10 | 210316 | 221875 15 | 49:18.26 | 4:33.70 | 221876 | 242420 16 | 53:52.21 | 2:16.61 | 242421 | 252681 17 | 56:09.07 | 4:47.09 | 252682 | 274215 18 | 60:56.16 | 3:37.61 | 274216 | 290551 19 | 64:34.02 | 3:04.56 | 290552 | 304407

Характеристики диапазона извлечения и сообщения об ошибках

Выбранный диапазон

Имя файла D:\Winamp\Various - Калина красная 8.wav

Пиковый уровень 100.0 %0.2 X Качество диапазона 100.0 % CRC теста 48726613 CRC копии 48726613 Копирование... OK

Ошибок не произошло

AccurateRip: сводка

Трек 1 нет в базе данныхТрек 2 нет в базе данныхТрек 3 нет в базе данныхТрек 4 нет в базе данныхТрек 5 нет в базе данныхТрек 6 нет в базе данныхТрек 7 нет в базе данныхТрек 8 нет в базе данныхТрек 9 нет в базе данныхТрек 10 нет в базе данныхТрек 11 нет в базе данныхТрек 12 нет в базе данныхТрек 13 нет в базе данныхТрек 14 нет в базе данныхТрек 15 нет в базе данныхТрек 16 нет в базе данныхТрек 17 нет в базе данныхТрек 18 нет в базе данныхТрек 19 нет в базе данных

Ни одного трека нет в базе AccurateRip

Конец отчёта
AUDIOCHECKER v2.0 beta (build 457) - by Dester - opdester@freemail.hu~~~~~~~~~~~~~~~~~~~~~~~~~~~~~~~~~~-=== НЕ РЕДАКТИРУЙТЕ ЭТОТ ФАЙЛ! ===-

Путь: ...\VA - Калина красная 8 (2002) Flac

1 -=- Various - Калина красная 8.flac -=- CDDA (100%)

70996772
Номер по каталогу: CD КСП 05 -2003
Продолжительность: 01:08:53
Источник (релизер): tolik38

01. гр.Заполярный круг - Кружит время [04:02]
02. Борис Гребенщиков - Весна на Заречной улице [04:07]
03. гр.Я и брат - Молодая красивая [03:56]
04. Александр Маршал - Неотправленное письмо [04:33]
05. Игорь Слуцкий - Сыну Егору [04:09]
06. Гера Грач - Странная [02:51]
07. Чиж и Ко - Летят перелётные птицы [02:40]
08. Владимир Волжский - Белые ночи пермских лагерей [07:05]
09. Сергей Ткач - Чёрная пыль [02:40]
10. Жиган - Дворик [05:14]
11. Андрей Бандера - Перекрестимся [02:31]
12. Вячеслав Клименков - Синица [03:50]
13. дуэт Калина красная - Осенняя [03:37]
14. Мила Елесеева - Умягчение злых сердец [05:09]
15. Аня Воробей и Рок-Острова - Звонарь [04:08]
16. Аня Воробей и Рок-Острова - По городу [04:48]
17. Аня Воробей и Рок-Острова - Проживём [03:26]
Exact Audio Copy V1.0 beta 1 from 15. November 2010

Отчёт EAC об извлечении, выполненном 7. января 2014, 22:37

Various / VA Калина красная - 9

Дисковод: Optiarc DVD RW AD-7260S Adapter: 1 ID: 0

Режим чтения : ДостоверностьИспользование точного потока : ДаОтключение кэша аудио : ДаИспользование указателей C2 : Нет

Коррекция смещения при чтении : 48Способность читать области Lead-in и Lead-out : НетЗаполнение пропущенных сэмплов тишиной : ДаУдаление блоков с тишиной в начале и конце : НетПри вычислениях CRC использовались нулевые сэмплы : ДаИнтерфейс : Встроенный Win32-интерфейс для Win NT/2000

Выходной формат : Внутренние WAV-операцииФормат сэмплов : 44.100 Гц; 16 бит; стерео

TOC извлечённого CD

Трек | Старт | Длительность | Начальный сектор | Конечный сектор --------------------------------------------------------------------- 1 | 0:00.00 | 4:02.05 | 0 | 18154 2 | 4:02.05 | 4:07.25 | 18155 | 36704 3 | 8:09.30 | 3:56.71 | 36705 | 54475 4 | 12:06.26 | 4:33.39 | 54476 | 74989 5 | 16:39.65 | 4:09.20 | 74990 | 93684 6 | 20:49.10 | 2:51.35 | 93685 | 106544 7 | 23:40.45 | 2:40.16 | 106545 | 118560 8 | 26:20.61 | 7:05.05 | 118561 | 150440 9 | 33:25.66 | 2:40.35 | 150441 | 162475 10 | 36:06.26 | 5:14.03 | 162476 | 186028 11 | 41:20.29 | 2:31.67 | 186029 | 197420 12 | 43:52.21 | 3:50.37 | 197421 | 214707 13 | 47:42.58 | 3:37.26 | 214708 | 231008 14 | 51:20.09 | 5:09.47 | 231009 | 254230 15 | 56:29.56 | 4:08.07 | 254231 | 272837 16 | 60:37.63 | 4:48.23 | 272838 | 294460 17 | 65:26.11 | 3:26.70 | 294461 | 309980

Характеристики диапазона извлечения и сообщения об ошибках

Выбранный диапазон

Имя файла C:\Users\Анатолий\Desktop\Музыка\VA Калина красная\2003 - VA Калина красная - 9\Various - VA Калина красная - 9.wav

Пиковый уровень 100.0 %0.2 X Качество диапазона 100.0 % CRC теста 6D29758E CRC копии 6D29758E Копирование... OK

Ошибок не произошло

AccurateRip: сводка

Трек 1 нет в базе данныхТрек 2 нет в базе данныхТрек 3 нет в базе данныхТрек 4 нет в базе данныхТрек 5 нет в базе данныхТрек 6 нет в базе данныхТрек 7 нет в базе данныхТрек 8 нет в базе данныхТрек 9 нет в базе данныхТрек 10 нет в базе данныхТрек 11 нет в базе данныхТрек 12 нет в базе данныхТрек 13 нет в базе данныхТрек 14 нет в базе данныхТрек 15 нет в базе данныхТрек 16 нет в базе данныхТрек 17 нет в базе данных

Ни одного трека нет в базе AccurateRip

Конец отчёта

==== FD6FD45460C3B04B496CEEBC8E791962C0B340C0FFDC590DFDC74B6061E87D12 ====
AUDIOCHECKER v2.0 beta (build 457) - by Dester - opdester@freemail.hu~~~~~~~~~~~~~~~~~~~~~~~~~~~~~~~~~~-=== НЕ РЕДАКТИРУЙТЕ ЭТОТ ФАЙЛ! ===-

Путь: ...\2003 - Калина красная 9

1 -=- Various - VA Калина красная - 9.flac -=- CDDA (99%)

183378020
Номер по каталогу: CD КСП 11-2003
Продолжительность: 00:56:15

01. Белые ночи пермских лагерей - Владимир Петров (Волжский) (Чувашская р-ка, ЮЛ-34/9)
02. Прощай, мой друг - Лариса Шлыкова и Елена Маслова (Челябинская обл., ЯВ-48/5)
03. Посёлок Яренга - Игорь Погорелов (Росписной) (Липецкая обл., ЮУ-323/3)
04. Зима - Владимир Базыкин (Кировская обл., ОР-216/5)
05. Соловьи - Салават Оглы и Николай Маринков (Волгоградская обл., ЯР-154/26)
06. Выше - Вера Вершинина (Ставропольский край, ЯП-17/7)
07. Посвящение матери - Владимир Петров (Волжский) (Чувашская р-ка, ЮЛ-34/9)
08. Жёлтые листья - Андрей Ковряков (Владимирская обл., ОР-216/5)
09. Конвой - Руслан Ануфриев (Челябинская обл., ЯВ-48/5)
10. Королева - Елена Беляева (Челябинская обл., ЯВ-48/5)
11. Не обещай - Александр Дьяченко (Волгоградская обл., ЯР-154/26)
12. Здесь под небом чужим - Валерий Терских (Саратовская обл., УШ-382/13)
13. Никогда я не был на Босфоре - Александр Золотарёв (Рязанская обл., ЯМ-401/2)
14. Две звезды - Хайдар Дёмкин (Рязанская обл., ЯМ-401/2)
Exact Audio Copy V1.0 beta 1 from 15. November 2010

Отчёт EAC об извлечении, выполненном 18. июня 2011, 23:24

Various / Калина красная 10 (спецвыпуск ч.1)

Дисковод: _NEC DVD_RW ND-3500AG Adapter: 3 ID: 0

Режим чтения : ДостоверностьИспользование точного потока : ДаОтключение кэша аудио : ДаИспользование указателей C2 : Нет

Коррекция смещения при чтении : 48Способность читать области Lead-in и Lead-out : НетЗаполнение пропущенных сэмплов тишиной : ДаУдаление блоков с тишиной в начале и конце : НетПри вычислениях CRC использовались нулевые сэмплы : ДаИнтерфейс : Установленный внешний ASPI-интерфейс

Выходной формат : Внутренние WAV-операцииФормат сэмплов : 44.100 Гц; 16 бит; стерео

TOC извлечённого CD

Трек | Старт | Длительность | Начальный сектор | Конечный сектор --------------------------------------------------------------------- 1 | 0:00.00 | 5:47.44 | 0 | 26068 2 | 5:47.44 | 4:14.40 | 26069 | 45158 3 | 10:02.09 | 4:05.50 | 45159 | 63583 4 | 14:07.59 | 4:44.46 | 63584 | 84929 5 | 18:52.30 | 3:28.52 | 84930 | 100581 6 | 22:21.07 | 3:01.12 | 100582 | 114168 7 | 25:22.19 | 5:06.03 | 114169 | 137121 8 | 30:28.22 | 3:07.12 | 137122 | 151158 9 | 33:35.34 | 4:33.26 | 151159 | 171659 10 | 38:08.60 | 3:08.45 | 171660 | 185804 11 | 41:17.30 | 3:44.00 | 185805 | 202604 12 | 45:01.30 | 3:24.74 | 202605 | 217978 13 | 48:26.29 | 4:46.00 | 217979 | 239428 14 | 53:12.29 | 3:03.01 | 239429 | 253154

Характеристики диапазона извлечения и сообщения об ошибках

Выбранный диапазон

Имя файла C:\Documents and Settings\Admin\Рабочий стол\Музыка\Калина красная 10-1\Various - Калина красная 10 (спецвыпуск ч.1).wav

Пиковый уровень 98.8 %0.3 X Качество диапазона 99.9 % CRC теста C435E2B6 CRC копии C435E2B6 Копирование... OK

Ошибок не произошло

AccurateRip: сводка

Трек 1 нет в базе данныхТрек 2 нет в базе данныхТрек 3 нет в базе данныхТрек 4 нет в базе данныхТрек 5 нет в базе данныхТрек 6 нет в базе данныхТрек 7 нет в базе данныхТрек 8 нет в базе данныхТрек 9 нет в базе данныхТрек 10 нет в базе данныхТрек 11 нет в базе данныхТрек 12 нет в базе данныхТрек 13 нет в базе данныхТрек 14 нет в базе данных

Ни одного трека нет в базе AccurateRip

Конец отчёта

==== 238EECACA7245663AFD9C18BA30BE7619F5098EEE2D266646FCE8F24AA7A5956 ====
AUDIOCHECKER v2.0 beta (build 457) - by Dester - opdester@freemail.hu~~~~~~~~~~~~~~~~~~~~~~~~~~~~~~~~~~-=== НЕ РЕДАКТИРУЙТЕ ЭТОТ ФАЙЛ! ===-

Путь: ...\Калина красная 10 - 1

1 -=- Various - Калина красная 10 (спецвыпуск ч.1).flac -=- CDDA (100%)

148728276
Номер по каталогу: CD КСП 02/2-2004
Продолжительность: 00:44:15

01. Посёлок Яренга - Игорь Погорелов (Росписной) (Липецкая обл., ЮУ-323/3)
02. Письмо - группа Перевал
03. Не обещай - Александр Дьяченко (Волгоградская обл., ЯР-154/26)
04. Королева - Елена Беляева (Челябинская обл., ЯВ-48/5)
05. Здесь под небом чужим - Валерий Терских (Саратовская обл., УШ-382/13)
06. Выше - Вера Вершинина (Ставропольский край, ЯП-17/7)
07. Белые ночи пермских лагерей - Владимир Петров (Волжский) (Чувашская р-ка, ЮЛ-34/9)
08. Жёлтые листья - Андрей Ковряков (Владимирская обл., ОР-216/5)
09. Ветка мимозы – группа Лесоповал
10. Калина красная - Вячеслав Клименков и все учасники концерта
Exact Audio Copy V1.0 beta 1 from 15. November 2010

Отчёт EAC об извлечении, выполненном 18. июня 2011, 23:47

Various / Калина красная 10 (спецвыпуск ч.2)

Дисковод: _NEC DVD_RW ND-3500AG Adapter: 3 ID: 0

Режим чтения : ДостоверностьИспользование точного потока : ДаОтключение кэша аудио : ДаИспользование указателей C2 : Нет

Коррекция смещения при чтении : 48Способность читать области Lead-in и Lead-out : НетЗаполнение пропущенных сэмплов тишиной : ДаУдаление блоков с тишиной в начале и конце : НетПри вычислениях CRC использовались нулевые сэмплы : ДаИнтерфейс : Установленный внешний ASPI-интерфейс

Выходной формат : Внутренние WAV-операцииФормат сэмплов : 44.100 Гц; 16 бит; стерео

TOC извлечённого CD

Трек | Старт | Длительность | Начальный сектор | Конечный сектор --------------------------------------------------------------------- 1 | 0:00.00 | 5:13.12 | 0 | 23486 2 | 5:13.12 | 3:46.27 | 23487 | 40463 3 | 8:59.39 | 4:42.70 | 40464 | 61683 4 | 13:42.34 | 4:03.27 | 61684 | 79935 5 | 17:45.61 | 4:11.37 | 79936 | 98797 6 | 21:57.23 | 3:18.35 | 98798 | 113682 7 | 25:15.58 | 6:53.57 | 113683 | 144714 8 | 32:09.40 | 3:46.04 | 144715 | 161668 9 | 35:55.44 | 4:06.38 | 161669 | 180156 10 | 40:02.07 | 4:13.56 | 180157 | 199187

Характеристики диапазона извлечения и сообщения об ошибках

Выбранный диапазон

Имя файла C:\Documents and Settings\Admin\Рабочий стол\Музыка\Калина красная 10-2\Various - Калина красная 10 (спецвыпуск ч.2).wav

Пиковый уровень 100.0 %0.5 X Качество диапазона 99.9 % CRC теста 75CF824A CRC копии 75CF824A Копирование... OK

Ошибок не произошло

AccurateRip: сводка

Трек 1 нет в базе данныхТрек 2 нет в базе данныхТрек 3 нет в базе данныхТрек 4 нет в базе данныхТрек 5 нет в базе данныхТрек 6 нет в базе данныхТрек 7 нет в базе данныхТрек 8 нет в базе данныхТрек 9 нет в базе данныхТрек 10 нет в базе данных

Ни одного трека нет в базе AccurateRip

Конец отчёта

==== 338D5A14EE34E1D2265ACFCDD6F38290613105DFA45185A9360141D89CEBEF42 ====
AUDIOCHECKER v2.0 beta (build 457) - by Dester - opdester@freemail.hu~~~~~~~~~~~~~~~~~~~~~~~~~~~~~~~~~~-=== НЕ РЕДАКТИРУЙТЕ ЭТОТ ФАЙЛ! ===-

Путь: ...\Калина красная 10 - 2

1 -=- Various - Калина красная 10 (спецвыпуск ч.2).flac -=- CDDA (100%)

151022036
Номер по каталогу: D 4984
Продолжительность: 01:07:07

01. Игорь Расписной - Следоки [ 03:43 ]
02. Марина Клещева - Орловские метели [ 04:23 ]
03. Серёга Кубин (Сергей Лузгин) - Спецпрофилакторий [ 03:51 ]
04. Игорь Попов - Ты будешь ждать [ 04:39 ]
05. Юрий Пересыпкин - Мама [ 04:50 ]
06. Ирина Журавлёва - Казак [ 03:03 ]
07. Алексей Мирослав - А помнишь? [ 03:18 ]
08. Владимир Базыкин - Кореша [ 05:29 ]
09. Надина Небесная (Н.Сатулина) - Зажги свечу [ 03:51 ]
10. Александр Коренюгин) - Прости [ 03:02 ]
11. Алексей Хромычкин - Расставаться нам пора (Уезжаю) [ 03:53 ]
12. Николай Маринков - Ивушки [ 04:03 ]
13. Камиль - Приезжайте-погуляем [ 03:58 ]
14. гр.Левый берег - Яблони и персики [ 02:58 ]
15. Александр Соболев - Концерт в зоне [ 04:50 ]
16. гр.Полосатый рейс - Всё пройдёт [ 03:34 ]
17. Вячеслав Клименков и Лена Калинина - Калина Красная [ 03:33 ]
Exact Audio Copy V1.0 beta 1 from 15. November 2010

Отчёт EAC об извлечении, выполненном 19. июня 2011, 18:53

Various / Калина Красная (спецвыпуск)

Дисковод: _NEC DV-5800E Adapter: 0 ID: 1

Режим чтения : ДостоверностьИспользование точного потока : ДаОтключение кэша аудио : ДаИспользование указателей C2 : Нет

Коррекция смещения при чтении : 6Способность читать области Lead-in и Lead-out : НетЗаполнение пропущенных сэмплов тишиной : ДаУдаление блоков с тишиной в начале и конце : НетПри вычислениях CRC использовались нулевые сэмплы : ДаИнтерфейс : Установленный внешний ASPI-интерфейс

Выходной формат : Внутренние WAV-операцииФормат сэмплов : 44.100 Гц; 16 бит; стерео

TOC извлечённого CD

Трек | Старт | Длительность | Начальный сектор | Конечный сектор --------------------------------------------------------------------- 1 | 0:00.00 | 3:43.07 | 0 | 16731 2 | 3:43.07 | 4:23.10 | 16732 | 36466 3 | 8:06.17 | 3:51.31 | 36467 | 53822 4 | 11:57.48 | 4:39.35 | 53823 | 74782 5 | 16:37.08 | 4:50.61 | 74783 | 96593 6 | 21:27.69 | 3:03.71 | 96594 | 110389 7 | 24:31.65 | 3:18.00 | 110390 | 125239 8 | 27:49.65 | 5:29.55 | 125240 | 149969 9 | 33:19.45 | 3:51.72 | 149970 | 167366 10 | 37:11.42 | 3:02.60 | 167367 | 181076 11 | 40:14.27 | 3:53.59 | 181077 | 198610 12 | 44:08.11 | 4:03.05 | 198611 | 216840 13 | 48:11.16 | 3:58.26 | 216841 | 234716 14 | 52:09.42 | 2:58.43 | 234717 | 248109 15 | 55:08.10 | 4:50.54 | 248110 | 269913 16 | 59:58.64 | 3:34.74 | 269914 | 286037 17 | 63:33.63 | 3:33.37 | 286038 | 302049

Характеристики диапазона извлечения и сообщения об ошибках

Выбранный диапазон

Имя файла C:\Documents and Settings\Admin\Рабочий стол\Калина Красная - Песни,спетые сердцем (Спецвыпуск) 2004г\Various - Калина Красная (спецвыпуск).wav

Пиковый уровень 100.0 %0.5 X Качество диапазона 100.0 % CRC теста D7A6BB69 CRC копии D7A6BB69 Копирование... OK

Ошибок не произошло

AccurateRip: сводка

Трек 1 нет в базе данныхТрек 2 нет в базе данныхТрек 3 нет в базе данныхТрек 4 нет в базе данныхТрек 5 нет в базе данныхТрек 6 нет в базе данныхТрек 7 нет в базе данныхТрек 8 нет в базе данныхТрек 9 нет в базе данныхТрек 10 нет в базе данныхТрек 11 нет в базе данныхТрек 12 нет в базе данныхТрек 13 нет в базе данныхТрек 14 нет в базе данныхТрек 15 нет в базе данныхТрек 16 нет в базе данныхТрек 17 нет в базе данных

Ни одного трека нет в базе AccurateRip

Конец отчёта
AUDIOCHECKER v2.0 beta (build 457) - by Dester - opdester@freemail.hu~~~~~~~~~~~~~~~~~~~~~~~~~~~~~~~~~~-=== НЕ РЕДАКТИРУЙТЕ ЭТОТ ФАЙЛ! ===-

Путь: ...\Калина Красная - Песни, спетые сердцем (Спецвыпуск) 2004

1 -=- Various - Калина Красная (спецвыпуск).flac -=- CDDA (100%)

185569508
Номер по каталогу: EXL05 - 247
Продолжительность: 01:13:39
Источник (релизер): tolik38

01. Андрей Бандера - Соловьи [03:16]
02. Гера Грач - Мама моя [04:03]
03. Игорь Слуцкий - Главное жизнь [04:45]
04. Александр Маршал и Лена Калинина - Снежный вальс [03:35]
05. Игорь Расписной - Полоса терпения [02:56]
06. Алексей Макеев - Разговор [04:19]
07. Владимир Харламов - Моя милая [03:09]
08. Тимур Рудник - Блокпост [04:18]
09. Александр Маршал и Алексей Баталов - Летят журавли... [04:32]
10. Любовь неземная - Любовь неземная [03:26]
11. Сергей Ткач - Чёрная пыль [04:04]
12. Алёна Фролова - Дорога в Сибирь [04:38]
13. Михаил Шуфутинский и Александр Чёрный - Ты - женщина [04:39]
14. Камиль - Холода пришли [03:14]
15. Николай Емелин - Гусиный перелёт [03:34]
16. Сергей Власов - Ярославль [03:34]
17. Константин Кольцов - Тройка русская [03:00]
18. Владимир Базыкин - Друг [04:50]
19. Вячеслав Клименков и Лена Калинина - Калина красная [03:34]
Exact Audio Copy V1.0 beta 1 from 15. November 2010

Отчёт EAC об извлечении, выполненном 7. января 2014, 23:15

Various / VA Калина красная - 13

Дисковод: Optiarc DVD RW AD-7260S Adapter: 1 ID: 0

Режим чтения : ДостоверностьИспользование точного потока : ДаОтключение кэша аудио : ДаИспользование указателей C2 : Нет

Коррекция смещения при чтении : 48Способность читать области Lead-in и Lead-out : НетЗаполнение пропущенных сэмплов тишиной : ДаУдаление блоков с тишиной в начале и конце : НетПри вычислениях CRC использовались нулевые сэмплы : ДаИнтерфейс : Встроенный Win32-интерфейс для Win NT/2000

Выходной формат : Внутренние WAV-операцииФормат сэмплов : 44.100 Гц; 16 бит; стерео

TOC извлечённого CD

Трек | Старт | Длительность | Начальный сектор | Конечный сектор --------------------------------------------------------------------- 1 | 0:00.00 | 3:16.69 | 0 | 14768 2 | 3:16.69 | 4:03.38 | 14769 | 33031 3 | 7:20.32 | 4:45.40 | 33032 | 54446 4 | 12:05.72 | 3:35.57 | 54447 | 70628 5 | 15:41.54 | 2:56.74 | 70629 | 83902 6 | 18:38.53 | 4:19.69 | 83903 | 103396 7 | 22:58.47 | 3:09.73 | 103397 | 117644 8 | 26:08.45 | 4:18.73 | 117645 | 137067 9 | 30:27.43 | 4:32.26 | 137068 | 157493 10 | 34:59.69 | 3:26.10 | 157494 | 172953 11 | 38:26.04 | 4:04.73 | 172954 | 191326 12 | 42:31.02 | 4:38.69 | 191327 | 212245 13 | 47:09.71 | 4:39.29 | 212246 | 233199 14 | 51:49.25 | 3:14.74 | 233200 | 247823 15 | 55:04.24 | 3:34.67 | 247824 | 263940 16 | 58:39.16 | 3:34.50 | 263941 | 280040 17 | 62:13.66 | 3:00.52 | 280041 | 293592 18 | 65:14.43 | 4:50.46 | 293593 | 315388 19 | 70:05.14 | 3:34.27 | 315389 | 331465

Характеристики диапазона извлечения и сообщения об ошибках

Выбранный диапазон

Имя файла C:\Users\Анатолий\Desktop\Музыка\VA Калина красная\2005 - VA Калина красная - 13\Various - VA Калина красная - 13.wav

Пиковый уровень 99.4 %0.2 X Качество диапазона 100.0 % CRC теста 1AEA0611 CRC копии 1AEA0611 Копирование... OK

Ошибок не произошло

AccurateRip: сводка

Трек 1 нет в базе данныхТрек 2 нет в базе данныхТрек 3 нет в базе данныхТрек 4 нет в базе данныхТрек 5 нет в базе данныхТрек 6 нет в базе данныхТрек 7 нет в базе данныхТрек 8 нет в базе данныхТрек 9 нет в базе данныхТрек 10 нет в базе данныхТрек 11 нет в базе данныхТрек 12 нет в базе данныхТрек 13 нет в базе данныхТрек 14 нет в базе данныхТрек 15 нет в базе данныхТрек 16 нет в базе данныхТрек 17 нет в базе данныхТрек 18 нет в базе данныхТрек 19 нет в базе данных

Ни одного трека нет в базе AccurateRip

Конец отчёта

==== FF6C5AF84C071FF23420FCA6847D021CCAEECCFB09F9AA504391998FEC058951 ====
AUDIOCHECKER v2.0 beta (build 457) - by Dester - opdester@freemail.hu~~~~~~~~~~~~~~~~~~~~~~~~~~~~~~~~~~-=== НЕ РЕДАКТИРУЙТЕ ЭТОТ ФАЙЛ! ===-

Путь: ...\2005 - Калина красная 13

1 -=- Various - VA Калина красная - 13.flac -=- CDDA (100%)

173979988
Номер по каталогу: CD-105441
Продолжительность: 01:06:06
01. А.Бандера - Метелица [03:40]
02. Рада Рай - Душа [04:12]
03. В.Харламов - Лучик света [03:38]
04. Е.Росс - Белый снег за окном [03:07]
05. Демидыч - Она по бережку идет по голубому [03:41]
06. В.Рахматов - Я скажу тебе одно, старина [03:31]
07. Е.Кемеровский - Ключи [04:06]
08. С.Авдеев - Шестиструнная душа моя [03:41]
09. С.Михайлов - Небеса [05:28]
10. А.Богданов - Прости мою любовь [04:10]
11. А.Малинин - Берега [04:35]
12. В.Кузема - Дождевая вода [03:37]
13. М.Шуфутинский - Не стреляйте в белых лебедей [03:47]
14. Ю.Маковей - Морошка [03:26]
15. Л.Успенская - Ты вернешься домой [03:17]
16. И.Росписной - Мама, я еду домой [04:11]
17. Р.Сафин - Надо жить! [03:53]
Exact Audio Copy V0.99 prebeta 4 from 23. January 2008

EAC extraction logfile from 20. July 2008, 23:28

Various / Калина Красная 15

Used drive : PLEXTOR DVDR PX-716AL Adapter: 2 ID: 1

Read mode : SecureUtilize accurate stream : YesDefeat audio cache : YesMake use of C2 pointers : No

Read offset correction : 30Overread into Lead-In and Lead-Out : NoFill up missing offset samples with silence : YesDelete leading and trailing silent blocks : NoNull samples used in CRC calculations : YesUsed interface : Installed external ASPI interface

Used output format : User Defined EncoderSelected bitrate : 768 kBit/sQuality : HighAdd ID3 tag : NoCommand line compressor : C:\Program Files\Exact Audio Copy\FLAC\FLAC.EXEAdditional command line options : -6 -V -T "ARTIST=%a" -T "TITLE=%t" -T "ALBUM=%g" -T "DATE=%y" -T "TRACKNUMBER=%n" -T "GENRE=%m" -T "COMMENT=%e" %s -o %d

TOC of the extracted CD

Track | Start | Length | Start sector | End sector --------------------------------------------------------- 1 | 0:00.00 | 3:40.62 | 0 | 16561 2 | 3:40.62 | 4:12.55 | 16562 | 35516 3 | 7:53.42 | 3:38.07 | 35517 | 51873 4 | 11:31.49 | 3:07.28 | 51874 | 65926 5 | 14:39.02 | 3:41.62 | 65927 | 82563 6 | 18:20.64 | 3:31.63 | 82564 | 98451 7 | 21:52.52 | 4:06.30 | 98452 | 116931 8 | 25:59.07 | 3:41.00 | 116932 | 133506 9 | 29:40.07 | 5:28.04 | 133507 | 158110 10 | 35:08.11 | 4:10.27 | 158111 | 176887 11 | 39:18.38 | 4:35.58 | 176888 | 197570 12 | 43:54.21 | 3:37.45 | 197571 | 213890 13 | 47:31.66 | 3:47.44 | 213891 | 230959 14 | 51:19.35 | 3:26.09 | 230960 | 246418 15 | 54:45.44 | 3:17.04 | 246419 | 261197 16 | 58:02.48 | 4:11.18 | 261198 | 280040 17 | 62:13.66 | 3:53.08 | 280041 | 297523

Range status and errors

Selected range

Filename C:\Documents and Settings\Admin\Мои документы\Various - Калина Красная 15.wav

Peak level 96.6 % Range quality 100.0 % Copy CRC 6ABB2CE0 Copy OK

No errors occurred

End of status report
AUDIOCHECKER v2.0 beta (build 457) - by Dester - opdester@freemail.hu~~~~~~~~~~~~~~~~~~~~~~~~~~~~~~~~~~-=== НЕ РЕДАКТИРУЙТЕ ЭТОТ ФАЙЛ! ===-

Путь: ...\VA - Калина Красная 15 (2008) Flac

1 -=- Various - Калина Красная 15.flac -=- CDDA (100%)

172183892
Номер по каталогу: KTL 08-984
Продолжительность: 01:09:20

01. Валерий Курас - По капельке [03:34]
02. Лена Василек - Осень [04:31]
03. Евгений Кемеровский - Неизвестный паром [03:38]
04. Рада Рай - Забыто [04:11]
05. Михаил Шуфутинский - Мосты [03:48]
06. Евгений Росс - Ностальгия [04:00]
07. Мустафа - Темная ночь [04:35]
08. Андрей Бандера - Поля России [03:47]
09. Аскер Седой - Офицеры [02:48]
10. Игорь Слуцкий - Задушевная [03:45]
11. Стас Михайлов - Странник [03:36]
12. Ильдар Южный - Устало сердце [03:55]
13. Юрий Демин - Ангелы [04:10]
14. Ирина Круг - Пой, гитара [02:59]
15. Владимир Харламов - Одной тебе [03:30]
16. Виктор Красавин - Обманщица [03:17]
17. Владимир Захаров - Костры [04:54]
18. Евгений Росс, Андрей Бандера и др - Родина моя [04:13]
Exact Audio Copy V0.99 prebeta 5 from 4. May 2009

Отчёт EAC об извлечении, выполненном 25. ноября 2010, 21:02

Various / Калина Красная 16

Дисковод: HL-DT-STDVD-RAM GH22NS30 Adapter: 2 ID: 0

Режим чтения : ДостоверностьИспользование точного потока : ДаОтключение кэша аудио : ДаИспользование указателей C2 : Нет

Коррекция смещения при чтении : 102Способность читать области Lead-in и Lead-out : НетЗаполнение пропущенных сэмплов тишиной : ДаУдаление блоков с тишиной в начале и конце : НетПри вычислениях CRC использовались нулевые сэмплы : ДаИнтерфейс : Встроенный Win32-интерфейс для Win NT/2000

Выходной формат : Внутренние WAV-операцииФормат сэмплов : 44.100 Гц; 16 бит; стерео

TOC извлечённого CD

Трек | Старт | Длительность | Начальный сектор | Конечный сектор --------------------------------------------------------------------- 1 | 0:00.00 | 3:34.48 | 0 | 16097 2 | 3:34.48 | 4:31.52 | 16098 | 36474 3 | 8:06.25 | 3:38.46 | 36475 | 52870 4 | 11:44.71 | 4:11.21 | 52871 | 71716 5 | 15:56.17 | 3:48.15 | 71717 | 88831 6 | 19:44.32 | 4:00.33 | 88832 | 106864 7 | 23:44.65 | 4:35.20 | 106865 | 127509 8 | 28:20.10 | 3:47.51 | 127510 | 144585 9 | 32:07.61 | 2:48.58 | 144586 | 157243 10 | 34:56.44 | 3:45.55 | 157244 | 174173 11 | 38:42.24 | 3:36.64 | 174174 | 190437 12 | 42:19.13 | 3:55.40 | 190438 | 208102 13 | 46:14.53 | 4:10.23 | 208103 | 226875 14 | 50:25.01 | 2:59.25 | 226876 | 240325 15 | 53:24.26 | 3:30.42 | 240326 | 256117 16 | 56:54.68 | 3:17.37 | 256118 | 270929 17 | 60:12.30 | 4:54.67 | 270930 | 293046 18 | 65:07.22 | 4:13.11 | 293047 | 312032

Характеристики диапазона извлечения и сообщения об ошибках

Выбранный диапазон

Имя файла C:\Users\EDDYSS@N\Desktop\VA - Калина красная 16(2008)[lossless]\Various - Калина Красная 16.wav

Пиковый уровень 96.6 % Качество диапазона 99.9 % CRC теста 9DA4BFE6 CRC копии 9DA4BFE6 Копирование... OK

Ошибок не произошло

AccurateRip: сводка

Трек 1 нет в базе данныхТрек 2 нет в базе данныхТрек 3 нет в базе данныхТрек 4 нет в базе данныхТрек 5 нет в базе данныхТрек 6 нет в базе данныхТрек 7 нет в базе данныхТрек 8 нет в базе данныхТрек 9 нет в базе данныхТрек 10 нет в базе данныхТрек 11 нет в базе данныхТрек 12 нет в базе данныхТрек 13 нет в базе данныхТрек 14 нет в базе данныхТрек 15 нет в базе данныхТрек 16 нет в базе данныхТрек 17 нет в базе данныхТрек 18 нет в базе данных

Ни одного трека нет в базе AccurateRip

Конец отчёта
AUDIOCHECKER v2.0 beta (build 457) - by Dester - opdester@freemail.hu~~~~~~~~~~~~~~~~~~~~~~~~~~~~~~~~~~

Начато: четверг, 25. 11. 2010. - 21:09.25Найдено файлов: 1

1 -===- C:\Users\EDDYSS@N\Desktop\VA - Калина красная 16(2008)[lossless]\Various - Калина Красная 16.ape Извлечение успешно выполнено Заключение: этот трек - CDDA с вероятностью 99% Временный файл удалён.

Завершено: четверг, 25. 11. 2010. - 21:13.44 (Время операции: 0:04.18)
Номер по каталогу: KTL09-154
Продолжительность: 01:09:09

01. Евгений Росс - Напоила ночь [03:56]
02. Андрей Бандера - Горлинка [04:00]
03. Лена Василек и гр.Белый день - Сон мой [03:33]
04. Артур - Забыть нельзя [03:35]
05. Владимир Харламов - Листья [03:28]
06. Андрей Широков - Рассвет [03:18]
07. Сергей Любавин - Дым [03:57]
08. Рада Рай - Ты не стой на моем пути [03:31]
09. Михаил Шуфутинский - До свидания [03:19]
10. Александр Маршал - День ушел [03:38]
11. Александр Шевченко - Больше ничего [04:32]
12. В.Захаров и Аня Воробей - Встреча [03:10]
13. Джанго - Ты люби меня просто так [03:14]
14. гр.Урянхай - Моя Тува [05:09]
15. Владимир Захаров - Ненастная погода [03:51]
16. Стас Михайлов - Петербург-Москва [04:22]
17. Ольга Сармат - Русь-Душа [03:53]
18. Евгений Росс и Рада Рай - Забери эту ночь [04:35]
Exact Audio Copy V1.0 beta 1 from 15. November 2010

Отчёт EAC об извлечении, выполненном 1. июня 2012, 21:22

Various / Калина красная 17

Дисковод: ASUS DRW-24B3ST Adapter: 0 ID: 1

Режим чтения : ДостоверностьИспользование точного потока : ДаОтключение кэша аудио : ДаИспользование указателей C2 : Нет

Коррекция смещения при чтении : 6Способность читать области Lead-in и Lead-out : НетЗаполнение пропущенных сэмплов тишиной : ДаУдаление блоков с тишиной в начале и конце : НетПри вычислениях CRC использовались нулевые сэмплы : ДаИнтерфейс : Встроенный Win32-интерфейс для Win NT/2000

Выходной формат : Пользовательский кодировщикВыбранный битрейт : 896 kBit/sКачество : ВысокийДобавление ID3-тэга : НетУтилита сжатия : C:\Program Files\FLAC\flac.exeДополнительные параметры : -T "DATE=%y" -T "GENRE=%m" -8 -V %s

TOC извлечённого CD

Трек | Старт | Длительность | Начальный сектор | Конечный сектор --------------------------------------------------------------------- 1 | 0:00.00 | 3:56.12 | 0 | 17711 2 | 3:56.12 | 4:00.34 | 17712 | 35745 3 | 7:56.46 | 3:33.17 | 35746 | 51737 4 | 11:29.63 | 3:35.35 | 51738 | 67897 5 | 15:05.23 | 3:28.71 | 67898 | 83568 6 | 18:34.19 | 3:18.14 | 83569 | 98432 7 | 21:52.33 | 3:57.44 | 98433 | 116251 8 | 25:50.02 | 3:31.74 | 116252 | 132150 9 | 29:22.01 | 3:19.50 | 132151 | 147125 10 | 32:41.51 | 3:38.43 | 147126 | 163518 11 | 36:20.19 | 4:32.28 | 163519 | 183946 12 | 40:52.47 | 3:10.04 | 183947 | 198200 13 | 44:02.51 | 3:14.50 | 198201 | 212800 14 | 47:17.26 | 5:09.42 | 212801 | 236017 15 | 52:26.68 | 3:51.30 | 236018 | 253372 16 | 56:18.23 | 4:22.35 | 253373 | 273057 17 | 60:40.58 | 3:53.33 | 273058 | 290565 18 | 64:34.16 | 4:35.37 | 290566 | 311227

Характеристики диапазона извлечения и сообщения об ошибках

Выбранный диапазон

Имя файла D:\trofim\Various - Калина красная 17.wav

Пиковый уровень 100.0 %0.3 X Качество диапазона 100.0 % CRC теста 4AF2138E CRC копии 4AF2138E Копирование... OK

Ошибок не произошло

AccurateRip: сводка

Трек 1 нет в базе данныхТрек 2 нет в базе данныхТрек 3 нет в базе данныхТрек 4 нет в базе данныхТрек 5 нет в базе данныхТрек 6 нет в базе данныхТрек 7 нет в базе данныхТрек 8 нет в базе данныхТрек 9 нет в базе данныхТрек 10 нет в базе данныхТрек 11 нет в базе данныхТрек 12 нет в базе данныхТрек 13 нет в базе данныхТрек 14 нет в базе данныхТрек 15 нет в базе данныхТрек 16 нет в базе данныхТрек 17 нет в базе данныхТрек 18 нет в базе данных

Ни одного трека нет в базе AccurateRip

Конец отчёта
AUDIOCHECKER v2.0 beta (build 457) - by Dester - opdester@freemail.hu~~~~~~~~~~~~~~~~~~~~~~~~~~~~~~~~~~-=== НЕ РЕДАКТИРУЙТЕ ЭТОТ ФАЙЛ! ===-

Путь: ...\VA - Калина красная 17 (2009) Flac

1 -=- Various - Калина красная 17.flac -=- CDDA (99%)

262425732
Номер по каталогу: KTL11-398
Продолжительность: 01:04:52

01. Евгений Росс и Евгений Кемеровский - Заплутали мишки, заплутали [03:17]
02. Елена Ваенга - Гуцулочка [03:07]
03. Артур - Еще вчера [04:30]
04. Андрей Бандера - Жемчужина [04:45]
05. Евгений Слепцов - Говори о любви, говори [03:34]
06. Рада Рай - Гуси-Лебеди [04:49]
07. Владимир Харламов - Метет метель [04:41]
08. Владислав Медяник - Послушай, сынок [04:15]
09. Ильдар Южный - Дворик детства [03:28]
10. Андрей Никольский - Волчица [04:12]
11. Виктор Красавин - Невеселая [04:15]
12. Владимир Захаров - Распустила осень косы [04:22]
13. Стас Михайлов - Живи и знай [03:15]
14. Александр Розенбаум - Одноклассники [04:47]
15. Сергей Любавин и Татьяна Буланова - Цветок [03:50]
16. Вика Цыганова - Праздничная [03:36]
Exact Audio Copy V1.0 beta 1 from 15. November 2010

EAC extraction logfile from 27. February 2011, 0:23

Various / Калина Красная 18

Used drive : HL-DT-STDVDRAM GT20L Adapter: 1 ID: 0

Read mode : SecureUtilize accurate stream : YesDefeat audio cache : YesMake use of C2 pointers : No

Read offset correction : 667Overread into Lead-In and Lead-Out : NoFill up missing offset samples with silence : YesDelete leading and trailing silent blocks : NoNull samples used in CRC calculations : YesUsed interface : Native Win32 interface for Win NT & 2000

Used output format : User Defined EncoderSelected bitrate : 1024 kBit/sQuality : HighAdd ID3 tag : NoCommand line compressor : C:\Program Files (x86)\Exact Audio Copy\FLAC\FLAC.EXEAdditional command line options : -8 -V %s

TOC of the extracted CD

Track | Start | Length | Start sector | End sector --------------------------------------------------------- 1 | 0:00.00 | 3:17.60 | 0 | 14834 2 | 3:17.60 | 3:07.55 | 14835 | 28914 3 | 6:25.40 | 4:30.25 | 28915 | 49189 4 | 10:55.65 | 4:45.39 | 49190 | 70603 5 | 15:41.29 | 3:34.42 | 70604 | 86695 6 | 19:15.71 | 4:49.24 | 86696 | 108394 7 | 24:05.20 | 4:41.66 | 108395 | 129535 8 | 28:47.11 | 4:15.46 | 129536 | 148706 9 | 33:02.57 | 3:28.55 | 148707 | 164361 10 | 36:31.37 | 4:12.52 | 164362 | 183313 11 | 40:44.14 | 4:15.02 | 183314 | 202440 12 | 44:59.16 | 4:22.30 | 202441 | 222120 13 | 49:21.46 | 3:15.74 | 222121 | 236819 14 | 52:37.45 | 4:47.31 | 236820 | 258375 15 | 57:25.01 | 3:50.66 | 258376 | 275691 16 | 61:15.67 | 3:36.37 | 275692 | 291928

Range status and errors

Selected range

Filename D:\Music\Various - Калина Красная 18.wav

Peak level 98.9 % Extraction speed 0.2 X Range quality 100.0 % Test CRC 7DC24022 Copy CRC 7DC24022 Copy OK

No errors occurred

End of status report
AUDIOCHECKER v2.0 beta (build 457) - by Dester - opdester@freemail.hu~~~~~~~~~~~~~~~~~~~~~~~~~~~~~~~~~~-=== НЕ РЕДАКТИРУЙТЕ ЭТОТ ФАЙЛ! ===-

Путь: ...\VA - Калина красная 18 (2011) Flac

1 -=- Various - Калина Красная 18.flac -=- CDDA (100%)

172163412
Номер по каталогу: KTL11-610
Продолжительность: 00:57:45

01. Андрей Бандера - Шереметьево [03:58]
02. Елена Ваенга - Аэропорт [03:13]
03. Стас Михайлов - А может быть [04:19]
04. Рада Рай - Отпускала в небо [03:24]
05. Григорий Лепс - Самый лучший день [04:01]
06. Артур - Лето пролетело [03:25]
07. Леонид Агутин и Анжелика Варум - Две дороги, два пути [04:00]
08. Евгений Кемеровский - Ключи [04:06]
09. Афина - Душа кричит [03:44]
10. Александр Малинин - Под венец [04:35]
11. Александр Маршал - Третий тост [05:06]
12. Владислав Медяник - Листопад [03:38]
13. Ильдар Южный - Полёт [02:47]
14. Вика Цыганова - Синие мои цветы [03:41]
15. Андрей Бандера и Рада Рай - Догорит костёр [03:41]
Exact Audio Copy V1.0 beta 1 from 15. November 2010

Отчёт EAC об извлечении, выполненном 6. декабря 2011, 23:25

Various / Калина красная 19

Дисковод: Optiarc DVD RW AD-7260S Adapter: 1 ID: 0

Режим чтения : ДостоверностьИспользование точного потока : ДаОтключение кэша аудио : ДаИспользование указателей C2 : Нет

Коррекция смещения при чтении : 48Способность читать области Lead-in и Lead-out : НетЗаполнение пропущенных сэмплов тишиной : ДаУдаление блоков с тишиной в начале и конце : НетПри вычислениях CRC использовались нулевые сэмплы : ДаИнтерфейс : Встроенный Win32-интерфейс для Win NT/2000

Выходной формат : Внутренние WAV-операцииФормат сэмплов : 44.100 Гц; 16 бит; стерео

TOC извлечённого CD

Трек | Старт | Длительность | Начальный сектор | Конечный сектор --------------------------------------------------------------------- 1 | 0:00.00 | 3:58.69 | 0 | 17918 2 | 3:58.69 | 3:13.56 | 17919 | 32449 3 | 7:12.50 | 4:19.15 | 32450 | 51889 4 | 11:31.65 | 3:24.33 | 51890 | 67222 5 | 14:56.23 | 4:01.73 | 67223 | 85370 6 | 18:58.21 | 3:25.55 | 85371 | 100800 7 | 22:24.01 | 4:00.36 | 100801 | 118836 8 | 26:24.37 | 4:06.20 | 118837 | 137306 9 | 30:30.57 | 3:44.51 | 137307 | 154157 10 | 34:15.33 | 4:35.42 | 154158 | 174824 11 | 38:51.00 | 5:06.18 | 174825 | 197792 12 | 43:57.18 | 3:38.37 | 197793 | 214179 13 | 47:35.55 | 2:47.69 | 214180 | 226773 14 | 50:23.49 | 3:41.16 | 226774 | 243364 15 | 54:04.65 | 3:41.08 | 243365 | 259947

Характеристики диапазона извлечения и сообщения об ошибках

Выбранный диапазон

Имя файла C:\Users\Анатолий\Desktop\Музыка\VA Калина красная 19\Various - Калина красная 19.wav

Пиковый уровень 96.6 %0.2 X Качество диапазона 100.0 % CRC теста B387CE41 CRC копии B387CE41 Копирование... OK

Ошибок не произошло

AccurateRip: сводка

Трек 1 нет в базе данныхТрек 2 нет в базе данныхТрек 3 нет в базе данныхТрек 4 нет в базе данныхТрек 5 нет в базе данныхТрек 6 нет в базе данныхТрек 7 нет в базе данныхТрек 8 нет в базе данныхТрек 9 нет в базе данныхТрек 10 нет в базе данныхТрек 11 нет в базе данныхТрек 12 нет в базе данныхТрек 13 нет в базе данныхТрек 14 нет в базе данныхТрек 15 нет в базе данных

Ни одного трека нет в базе AccurateRip

Конец отчёта

==== EA30A9AA96748C9D44B33C870D144468171BCD7DD8726D4D9BBA16EFEC63D883 ====
AUDIOCHECKER v2.0 beta (build 457) - by Dester - opdester@freemail.hu~~~~~~~~~~~~~~~~~~~~~~~~~~~~~~~~~~-=== НЕ РЕДАКТИРУЙТЕ ЭТОТ ФАЙЛ! ===-

Путь: ...\VA - Калина красная 19 (2011) Flac

1 -=- Various - Калина красная 19.flac -=- CDDA (100%)

172167668
Номер по каталогу: KTL12-903
Продолжительность: 01:03:07

01. Сергей Чумаков - Недотрога [04:01]
02. Александр Маршал - Прелюдия любви [03:25]
03. Андрей Бандера - Осень в Москве [03:26]
04. Елена Ваенга - Больно [04:33]
05. Стас Михайлов - Где-то там [03:51]
06. Рада Рай - Территория любви [03:30]
07. Артур - Без любви твоей не смогу [03:06]
08. Женя Тополь - Листик [03:25]
09. Сергей Трофимов - Я привык улыбаться людям [03:31]
10. Юрий Калашников - Тишина и покой [03:59]
11. Людмила Шаронова - Тебе [02:56]
12. Гарик Сукачев и гр. Неприкасаемые - Белые дороги [05:51]
13. Лера Огонек - Ветерок [03:43]
14. Николай Турченков - Полотно [02:33]
15. Ирина Круг - Перелетная птица [03:50]
16. Андрей Широков - Лунный свет [03:41]
17. Иван Кучин - Верба [03:38]
Exact Audio Copy V0.99 prebeta 4 from 23. January 2008

Отчёт EAC об извлечении, выполненном 31. декабря 2012, 18:41

VA / Калина красная 20

Дисковод: ASUS DRW-1814BLT Adapter: 5 ID: 0

Режим чтения : ДостоверностьИспользование точного потока : ДаОтключение кэша аудио : ДаИспользование указателей C2 : Нет

Коррекция смещения при чтении : 6Способность читать области Lead-in и Lead-out : НетЗаполнение пропущенных сэмплов тишиной : ДаУдаление блоков с тишиной в начале и конце : НетПри вычислениях CRC использовались нулевые сэмплы : ДаИнтерфейс : Установленный внешний ASPI-интерфейс

Выходной формат : Внутренние WAV-операцииФормат сэмплов : 44.100 Гц; 16 бит; стерео

TOC извлечённого CD

Трек | Старт | Длительность | Начальный сектор | Конечный сектор --------------------------------------------------------------------- 1 | 0:00.00 | 4:01.34 | 0 | 18108 2 | 4:01.34 | 3:25.58 | 18109 | 33541 3 | 7:27.17 | 3:26.24 | 33542 | 49015 4 | 10:53.41 | 4:33.34 | 49016 | 69524 5 | 15:27.00 | 3:51.61 | 69525 | 86910 6 | 19:18.61 | 3:30.67 | 86911 | 102727 7 | 22:49.53 | 3:06.68 | 102728 | 116745 8 | 25:56.46 | 3:25.06 | 116746 | 132126 9 | 29:21.52 | 3:31.36 | 132127 | 147987 10 | 32:53.13 | 3:59.68 | 147988 | 165980 11 | 36:53.06 | 2:56.12 | 165981 | 179192 12 | 39:49.18 | 5:51.44 | 179193 | 205561 13 | 45:40.62 | 3:43.04 | 205562 | 222290 14 | 49:23.66 | 2:33.10 | 222291 | 233775 15 | 51:57.01 | 3:50.65 | 233776 | 251090 16 | 55:47.66 | 3:41.20 | 251091 | 267685 17 | 59:29.11 | 3:38.24 | 267686 | 284059

Характеристики диапазона извлечения и сообщения об ошибках

Выбранный диапазон

Имя файла D:\ale2187\VA - Калина красная 20.wav

Пиковый уровень 97.1 % Качество диапазона 100.0 % CRC теста 2F9CC034 CRC копии 2F9CC034 Копирование... OK

Ошибок не произошло

AccurateRip: сводка

Трек 1 нет в базе данныхТрек 2 нет в базе данныхТрек 3 нет в базе данныхТрек 4 нет в базе данныхТрек 5 нет в базе данныхТрек 6 нет в базе данныхТрек 7 нет в базе данныхТрек 8 нет в базе данныхТрек 9 нет в базе данныхТрек 10 нет в базе данныхТрек 11 нет в базе данныхТрек 12 нет в базе данныхТрек 13 нет в базе данныхТрек 14 нет в базе данныхТрек 15 нет в базе данныхТрек 16 нет в базе данныхТрек 17 нет в базе данных

Ни одного трека нет в базе AccurateRip

Конец отчёта
AUDIOCHECKER v2.0 beta (build 457) - by Dester - opdester@freemail.hu~~~~~~~~~~~~~~~~~~~~~~~~~~~~~~~~~~

Начато: понедельник, 31. 12. 2012. - 19:23.32Найдено файлов: 1

1 -===- D:\ale2187\VA - Калина красная 20.wav Заключение: этот трек - CDDA с вероятностью 99%

Завершено: понедельник, 31. 12. 2012. - 19:29.46 (Время операции: 0:06.13)
Номер по каталогу: UMGCD13-261
Продолжительность: 01:00:40

01. Андрей Бандера - Расскажи, гитара [03:21]
02. Лесоповал - Мне улыбнись [03:53]
03. Евгений Росс - Лето [03:45]
04. Артур - Озябшее письмо [03:55]
05. Рада Рай - Ты любимый мой [03:42]
06. Сергей Трофимов - 5000 миль [03:59]
07. Екатерина Потанина - Бархат лепестков [03:50]
08. Сергей Рыбачев - Мне снова кто-то скажет о любви [03:25]
09. Александр Шапиро - Под стареньким зонтом [03:35]
10. Михаил Шуфутинский - Мама [04:06]
11. Александр Маршал - Две табуретки [03:31]
12. Елена Ваенга - Ехал ко мне друг [04:03]
13. Николай Агутин - Блинчики [03:59]
14. Александр Валуйский - Дубрава спит [03:27]
15. Жека - Пушинка [04:01]
16. Стас Михайлов - Свет звезды [04:00]
Exact Audio Copy V1.0 beta 3 from 29. August 2011

Отчёт EAC об извлечении, выполненном 14. декабря 2013, 20:03

VA / Калина Красная 21

Дисковод: ASUS DRW-1814BLT Adapter: 5 ID: 0

Режим чтения : ДостоверностьИспользование точного потока : ДаОтключение кэша аудио : ДаИспользование указателей C2 : Нет

Коррекция смещения при чтении : 6Способность читать области Lead-in и Lead-out : НетЗаполнение пропущенных сэмплов тишиной : ДаУдаление блоков с тишиной в начале и конце : НетПри вычислениях CRC использовались нулевые сэмплы : ДаИнтерфейс : Встроенный Win32-интерфейс для Win NT/2000

Выходной формат : Внутренние WAV-операцииФормат сэмплов : 44.100 Гц; 16 бит; стерео

TOC извлечённого CD

Трек | Старт | Длительность | Начальный сектор | Конечный сектор --------------------------------------------------------------------- 1 | 0:00.00 | 3:21.19 | 0 | 15093 2 | 3:21.19 | 3:53.57 | 15094 | 32625 3 | 7:15.01 | 3:45.26 | 32626 | 49526 4 | 11:00.27 | 3:55.39 | 49527 | 67190 5 | 14:55.66 | 3:42.65 | 67191 | 83905 6 | 18:38.56 | 3:59.16 | 83906 | 101846 7 | 22:37.72 | 3:50.61 | 101847 | 119157 8 | 26:28.58 | 3:25.37 | 119158 | 134569 9 | 29:54.20 | 3:35.51 | 134570 | 150745 10 | 33:29.71 | 4:06.47 | 150746 | 169242 11 | 37:36.43 | 3:31.66 | 169243 | 185133 12 | 41:08.34 | 4:03.39 | 185134 | 203397 13 | 45:11.73 | 3:59.20 | 203398 | 221342 14 | 49:11.18 | 3:27.33 | 221343 | 236900 15 | 52:38.51 | 4:01.23 | 236901 | 254998 16 | 56:39.74 | 4:00.54 | 254999 | 273052

Характеристики диапазона извлечения и сообщения об ошибках

Выбранный диапазон

Имя файла D:\ale2187\VA - Калина Красная 21.wav

Пиковый уровень 98.8 % Скорость извлечения 8.7 X Качество диапазона 99.9 % CRC теста 99BC8F15 CRC копии 99BC8F15 Копирование... OK

Ошибок не произошло

AccurateRip: сводка

Трек 1 отсутствует в базе данныхТрек 2 отсутствует в базе данныхТрек 3 отсутствует в базе данныхТрек 4 отсутствует в базе данныхТрек 5 отсутствует в базе данныхТрек 6 отсутствует в базе данныхТрек 7 отсутствует в базе данныхТрек 8 отсутствует в базе данныхТрек 9 отсутствует в базе данныхТрек 10 отсутствует в базе данныхТрек 11 отсутствует в базе данныхТрек 12 отсутствует в базе данныхТрек 13 отсутствует в базе данныхТрек 14 отсутствует в базе данныхТрек 15 отсутствует в базе данныхТрек 16 отсутствует в базе данных

Ни одного трека нет в базе AccurateRip

Конец отчёта

==== Контрольная сумма отчёта DB58460A265FA5977F075A1082C44E3CC3AF90817D50921403EA78E3453E6FAA ====
AUDIOCHECKER v2.0 beta (build 457) - by Dester - opdester@freemail.hu~~~~~~~~~~~~~~~~~~~~~~~~~~~~~~~~~~

Начато: суббота, 14. 12. 2013. - 20:05.20Найдено файлов: 1

1 -===- D:\ale2187\VA - Калина Красная 21.wav Заключение: этот трек - CDDA с вероятностью 100%

Завершено: суббота, 14. 12. 2013. - 20:12.53 (Время операции: 0:07.33)
Продолжение следует...

Трекер:  [ 09-Янв-2014 20:07 ]

  

Скачать .torrent

Размер .torrent файла 49 KB


Размер: 9.52 GB
Хэш (hash) релиза: fbb35a6e6584951b54019153ec6a69dd61d22ded

Еще никто не оставлял запись к записи скачать торрент VA - Калина красная 1-9, 10 . Будь первым!

!Обратная связь