Скачать через торрент музыку Anton Bruckner - Symphonie Nr. 7 Антон Брукнер - Симфония № 7 бесплатно без регистрации torrent

Статистика раздачи
Размер:  273 MB   |    Зарегистрирован:  3 года   |    .torrent скачан:  154 раза   |   
Раздают:  1  
   
Загрузка...
 
Автор Сообщение

Galfimbul

avatar Galfimbul


Anton Bruckner | Антон Брукнер
(1824–1896)


Symphonie Nr. 7 E-dur | Симфония № 7 ми мажор


Symphonieorchester des Bayerischen Rundfunks
Colin Davis conductor

Жанр
: Classical / Symphony
Дата и место записи: Philharmonie im Münchner Gasteig, 1.V.1987 (live)
Формат записи: DDD, Stereo
Год издания диска: 1989
Издатель (лейбл): Orfeo
Номер по каталогу: C 208 891 A
Аудиокодек: FLAC
Тип рипа: image+.cue
Битрейт аудио: lossless
Продолжительность: 1:09:16
Наличие сканов в содержимом раздачи: да

Источник: блог OdeonMusic


Tracklist / Треклист
Symphonie Nr. 7 E-dur - 1:08:33
I. Allegro moderato - 21:27
III. Scherzo: Sehr schnell - 10:39
II. Adagio: Sehr feierlich und sehr langsam - 24:13
IV. Finale: Bewegt, doch nicht zu schnell - 12:14
(applause) - 0:43
Exact Audio Copy V1.0 beta 3 from 29. August 2011

EAC extraction logfile from 1. May 2013, 18:08

Sir Colin Davis / Bruckner - Symphony No.7 - Sir Colin Davis

Used drive : TSSTcorpCDDVDW SH-222BB Adapter: 2 ID: 1

Read mode : SecureUtilize accurate stream : YesDefeat audio cache : YesMake use of C2 pointers : No

Read offset correction : 6Overread into Lead-In and Lead-Out : NoFill up missing offset samples with silence : YesDelete leading and trailing silent blocks : NoNull samples used in CRC calculations : YesUsed interface : Native Win32 interface for Win NT & 2000

Used output format : User Defined EncoderSelected bitrate : 1024 kBit/sQuality : HighAdd ID3 tag : NoCommand line compressor : C:\Program Files\Exact Audio Copy\Flac\flac.exeAdditional command line options : -8 -V -T "TITLE=%title%" -T "ARTIST=%artist%" -T "ALBUMARTIST=%albumartist%" -T "ALBUM=%albumtitle%" -T "DATE=%year%" -T "TRACKNUMBER=%tracknr%" -T "TRACKTOTAL=%numtracks%" -T "GENRE=%genre%" -T "COMMENT=%comment%" -T "PERFORMER=%albuminterpret%" -T "COMPOSER=%composer%" %source% -o %dest%

TOC of the extracted CD

Track | Start | Length | Start sector | End sector --------------------------------------------------------- 1 | 0:00.33 | 21:27.37 | 33 | 96594 2 | 21:27.70 | 10:38.38 | 96595 | 144482 3 | 32:06.33 | 24:13.10 | 144483 | 253467 4 | 56:19.43 | 12:14.00 | 253468 | 308517 5 | 68:33.43 | 0:43.15 | 308518 | 311757

Range status and errors

Selected range

Filename G:\Ripped general\[1976] Bruckner – Symphony No.7 – Sir Colin Davis\Bruckner - Symphony No.7 - Sir Colin Davis.wav

Peak level 69.8 % Extraction speed 2.3 X Range quality 100.0 % Test CRC 8854FE5B Copy CRC 8854FE5B Copy OK

No errors occurred

AccurateRip summary

Track 1 accurately ripped (confidence 1) [809C4269] (AR v1)Track 2 accurately ripped (confidence 1) [E0809F83] (AR v1)Track 3 accurately ripped (confidence 1) [F990A2F4] (AR v1)Track 4 accurately ripped (confidence 1) [629BAF24] (AR v1)Track 5 accurately ripped (confidence 1) [3D2CB576] (AR v1)

All tracks accurately ripped

End of status report
-----------------------

DON''T MODIFY THIS FILE

-----------------------

PERFORMER: auCDtect Task Manager, ver. 1.5.1RC3 build 1.5.1.4Copyright (c) 2008-2010 y-soft. All rights reserved

ANALYZER: auCDtect: CD records authenticity detector, version 0.8.2Copyright (c) 2004 Oleg Berngardt. All rights reserved.Copyright (c) 2004 Alexander Djourik. All rights reserved.

FILE: Bruckner. Symphonie Nr. 7 (Colin Davis).flac Size: 266459170 Hash: B0E525A84908C57027FE985C6F18A526 Accuracy: -m0 Conclusion: CDDA 100% Signature: 5BB89DA432D2D651962715E82018BF097DC025DC
[CUETools log; Date: 17.01.2014 09:54:22; Version: 2.1.4]Pregap length 00:00:33.[AccurateRip ID: 001102e7-004d1cf2-44103c05] found.Track [ CRC | V2 ] Status 01 [809c4269|ba52d080] (0+2/2) Accurately ripped 02 [e0809f83|f53b4bb2] (0+2/2) Accurately ripped 03 [f990a2f4|54492969] (0+2/2) Accurately ripped 04 [629baf24|2a16e39e] (0+2/2) Accurately ripped 05 [3d2cb576|748c346a] (0+2/2) Accurately ripped

Track Peak [ CRC32 ] [W/O NULL] [ LOG ] -- 69,8 [8854FE5B] [1A397E6A] CRC32 01 61,9 [B28C01FC] [D5F01A4C] 02 61,7 [C47FC955] [B55D2C2E] 03 66,1 [03A4C772] [BF489051] 04 69,8 [9268BAE6] [4863E350] 05 43,1 [6A156EDA] [24E7CAFF]
TITLE "Anton Bruckner: Symphonie Nr. 7"PERFORMER "Colin Davis"REM GENRE ClassicalREM DISCID 44103C05REM COMMENT "ExactAudioCopy v1.0b3"FILE "Bruckner. Symphonie Nr. 7 (Colin Davis).flac" WAVE TRACK 01 AUDIO TITLE "Symphonie Nr. 7 E-dur: I. Allegro moderato" PERFORMER "Symphonieorchester des Bayerischen Rundfunks. Colin Davis, conductor" REM DATE 1987 INDEX 00 00:00:00 INDEX 01 00:00:33 TRACK 02 AUDIO TITLE "Symphonie Nr. 7 E-dur: III. Scherzo: Sehr schnell" PERFORMER "Symphonieorchester des Bayerischen Rundfunks. Colin Davis, conductor" REM DATE 1987 INDEX 00 21:18:58 INDEX 01 21:27:70 TRACK 03 AUDIO TITLE "Symphonie Nr. 7 E-dur: II. Adagio: Sehr feierlich und sehr langsam" PERFORMER "Symphonieorchester des Bayerischen Rundfunks. Colin Davis, conductor" REM DATE 1987 INDEX 00 31:52:00 INDEX 01 32:06:33 TRACK 04 AUDIO TITLE "Symphonie Nr. 7 E-dur: IV. Finale: Bewegt, doch nicht zu schnell" PERFORMER "Symphonieorchester des Bayerischen Rundfunks. Colin Davis, conductor" REM DATE 1987 INDEX 00 56:05:68 INDEX 01 56:19:43 TRACK 05 AUDIO TITLE "(applause)" PERFORMER "-" REM DATE 1987 INDEX 01 68:33:43


Трекер:  [ 17-Янв-2014 13:18 ]

  

Скачать .torrent

Размер .torrent файла 12 KB


Размер: 273 MB
Хэш (hash) релиза: cf1920083ad3c3be9467dcb1e5d11a20c1c1290b

Еще никто не оставлял запись к записи скачать торрент Anton Bruckner - Symphonie Nr. 7 Антон Брукнер - Симфония № 7 . Будь первым!

!Обратная связь