Скачать через торрент музыку Boris Blacher & Witold Lutoslawski: String Quartets бесплатно без регистрации torrent

Статистика раздачи
Размер:  169 MB   |    Зарегистрирован:  3 года   |    .torrent скачан:  129 раз   |   
Раздают:  1  
   
Загрузка...
 
Автор Сообщение

Galfimbul

avatar Galfimbul


Boris Blacher & Witold Lutosławski: String Quartets

Жанр: Contemporary
Страна-производитель диска: Germany
Год издания диска: 1994
Издатель (лейбл): MDG
Номер по каталогу: L 3507
Дата записи: 1991, 1993
Аудиокодек: FLAC
Тип рипа: image+.cue
Битрейт аудио: lossless
Продолжительность: 43:56
Источник: скачано с avaxhome
Наличие сканов в содержимом раздачи: да
Треклист:
1 Boris Blacher: 5. Streichquartett/String Quartet 18:32
Witold Lutoslawski: Streichquartet/String Quartet,
2 Introductory Movement 9:20
3 Main Movement 16:04

Исполнители:
Neues Leipziger Streichquartett -
Andreas Seidel, Violin
Tilman Büning, Violin
Ivo Bauer, Viola
Matthias Moosdorf, Violoncello
Exact Audio Copy V1.0 beta 3 from 29. August 2011

EAC extraction logfile from 7. May 2013, 12:23

Neues Leipziger Streichquartett / Blacher, Lutoslawski: String Quartets

Used drive : PIONEER BD-RW BDR-206 Adapter: 0 ID: 2

Read mode : SecureUtilize accurate stream : YesDefeat audio cache : YesMake use of C2 pointers : No

Read offset correction : 667Overread into Lead-In and Lead-Out : NoFill up missing offset samples with silence : YesDelete leading and trailing silent blocks : NoNull samples used in CRC calculations : YesUsed interface : Native Win32 interface for Win NT & 2000

Used output format : User Defined EncoderSelected bitrate : 1024 kBit/sQuality : HighAdd ID3 tag : YesCommand line compressor : C:\Program Files\FLAC\flac.exeAdditional command line options : -5 -T "Artist=%artist%" -T "Title=%title%" -T "Album=%albumtitle%" -T "Date=%year%" -T "Tracknumber=%tracknr%" -T "Genre=%genre%" %source% -o %dest%

TOC of the extracted CD

Track | Start | Length | Start sector | End sector --------------------------------------------------------- 1 | 0:00.33 | 18:31.50 | 33 | 83407 2 | 18:32.08 | 9:20.25 | 83408 | 125432 3 | 27:52.33 | 16:03.70 | 125433 | 197727

Range status and errors

Selected range

Filename F:\=== VINYL RIPS ===\=== EAC===\X FRESH RIP\Blacher, Lutoslawski- Neues Leipziger Streichquartett - String Quartets.wav

Peak level 86.9 % Extraction speed 7.4 X Range quality 100.0 % Test CRC 9041D319 Copy CRC 9041D319 Copy OK

No errors occurred

AccurateRip summary

Track 1 accurately ripped (confidence 1) [B1F0639A] (AR v1)Track 2 accurately ripped (confidence 1) [CFD5236E] (AR v1)Track 3 accurately ripped (confidence 1) [9CA3BCD6] (AR v1)

All tracks accurately ripped

End of status report

---- CUETools DB Plugin V2.1.3

[CTDB TOCID: Uxj03JkBdn6uMbPmagEODfbBvJ4-] disk not present in database, Submit result: discs with pregaps not supported in this protocol version

==== Log checksum BDA97A7EF174C63CA3B0224DD3E447F9A04EA048F6971503B90666E8BC6723D6 ====


Трекер:  [ 17-Янв-2014 13:18 ]

  

Скачать .torrent

Размер .torrent файла 14 KB


Размер: 169 MB
Хэш (hash) релиза: 1e7ab987458c92eca24b58d3adfa3059206f03e9

Еще никто не оставлял запись к записи скачать торрент Boris Blacher & Witold Lutoslawski: String Quartets . Будь первым!

!Обратная связь